By langtu_daohoa1994
#545450 Bấm vào đây để đăng nhập và xem link!

Duy vật biện chứng, lý thuyết căn bản được áp dụng trong tất cả trường hợp . Trong thế giới tâm linh huyền bí cũng được VN cố gắng giải KẾT bằng lập luận khoa học vì khoảng 10 năm nay cả nước có nhiều hiện tượng đồng cốt như nói chuyện với vong, cõi âm (linh hồn) , tìm mộ, hài cốt thất lạc, xác định ID . Phong thủy , dịch lý, số mệnh được đưa vào đời sống xã hội với Trung Tâm Nghiên Cứu Tiềm Năng Con Người .

Cái này là tổng hợp video của TRung tâm nghiên cứu tiềm năng con người chỗ bác Nguyễn Phúc Giác Hải

Mấy nhà ngoại cảm nổi tiếng đều tập trung ở trung tâm này như: Bích Hằng, Thiêm, Nhã

General

Format : AVI

Format/Info : Audio Video Interleave

Duration : 43mn 48s

Overall bit rate : 1 423 Kbps

Writing library : MPlayer

Video

ID : 0

Format : MPEG-4 Visual

Format profile : [email protected]

Format settings, BVOP : No

Format settings, QPel : No

Format settings, GMC : No warppoints

Format settings, Matrix : Default (H.263)

Codec ID : DX50

Codec ID/Hint : DivX 5

Duration : 43mn 48s

Bit rate : 1 347 Kbps

Width : 352 pixels

Height : 288 pixels

Display aspect ratio : 1.222

Frame rate : 23.976 fps

Standard : PAL

Color space : YUV

Chroma subsampling : 4:2:0

Bit depth : 8 bits

Scan type : Interlaced

Scan order : Top Field First

Bits/(Pixel*Frame) : 0.554

Stream size : 422 MiB (95%)

Writing library : Lavc52.0.0

Audio

ID : 1

Format : MPEG Audio

Format phiên bản : phiên bản 1

Format profile : Layer 3

Mode : Joint stereo

Mode extension : MS Stereo

Codec ID : 55

Codec ID/Hint : MP3

Duration : 43mn 48s

Bit rate mode : Constant

Bit rate : 64.0 Kbps

Channel(s) : 2 channels

Sampling rate : 44.1 KHz

Stream size : 20.1 MiB (4%)

Alignment : Aligned on interleaves

Interleave, duration : 26 ms (0.63 video frame)

Interleave, preload duration : 809 ms

Writing library : LAMEUUU

phim gồm 2 đĩa chọn 1 trong 2 loại link để download
Code: link filesonic
1 Bấm vào đây để đăng nhập và xem link!
2 Bấm vào đây để đăng nhập và xem link!
link bitshare
1 Bấm vào đây để đăng nhập và xem link!
2 Bấm vào đây để đăng nhập và xem link!

By BOFamily_vn
By bonghongthuytinh_thewall62
#545714 leech cái khỉ khô ji jay,,,dẹp hết đi không spam nhá

mà hàng này hiếm thật

chỉ tội cái link T_T

Kết nối đề xuất: