By iinyou_httn
#543681 Batman: Year One (2011)



Bấm vào đây để đăng nhập và xem link!
Code: Complete name : Batman.Year.One.2011.720p.x264.AC3.UNiT3D.DeamoN.mkv
Format : Matroska
File size : 1.63 GiB
Duration : 1h 4mn
Overall bit rate : 3 640 Kbps
Movie name : Batman.Year.One.2011.720p.x264.AC3.UNiT3D.DeamoN
Encoded date : UTC 2011-12-05 20:02:04
Writing application : mkvmerge v5.0.0 ('Die Wahre Liebe') built on Sep 25 2011 20:33:49
Writing library : libebml v1.2.2 + libmatroska v1.3.0

Video
ID : 1
Format : AVC
Format/Info : Advanced Video Codec
Format profile : High@L4.1
Format settings, CABAC : Yes
Format settings, ReFrames : 5 frames
Format settings, GOP : M=1, N=24
Codec ID : V_MPEG4/ISO/AVC
Duration : 1h 4mn
Bit rate mode : Variable
Bit rate : 3 000 Kbps
Maximum bit rate : 40.0 Mbps
Width : 1 280 pixels
Height : 720 pixels
Display aspect ratio : 16:9
Frame rate : 23.976 fps
Color space : YUV
Chroma subsampling : 4:2:0
Bit depth : 8 bits
Scan type : Progressive
Bits/(Pixel*Frame) : 0.136
Stream size : 1.31 GiB (80%)
Title : UNiT3D-999
Writing library : x264 core 119 r2106 07efeb4
Language : English
Color primaries : BT.709-5, BT.1361, IEC 61966-2-4, SMPTE RP177
Transfer characteristics : BT.709-5, BT.1361
Matrix coefficients : BT.709-5, BT.1361, IEC 61966-2-4 709, SMPTE RP177

Audio
ID : 2
Format : AC-3
Format/Info : Audio Coding 3
Mode extension : CM (complete main)
Codec ID : A_AC3
Duration : 1h 4mn
Bit rate mode : Constant
Bit rate : 640 Kbps
Channel(s) : 6 channels
Channel positions : Front: L C R, Side: L R, LFE
Sampling rate : 48.0 KHz
Bit depth : 16 bits
Compression mode : Lossy
Stream size : 294 MiB (18%)
Title : UNiT3D-999
Language : English

Text #1
ID : 3
Format : UTF-8
Codec ID : S_TEXT/UTF8
Codec ID/Info : UTF-8 Plain Text
Title : UNiT3D-999
Language : English

Text #2
ID : 4
Format : UTF-8
Codec ID : S_TEXT/UTF8
Codec ID/Info : UTF-8 Plain Text
Title : UNiT3D-999
Language : Dutch

Menu
00:00:00.000 : en:00:00:00.000
00:01:51.153 : en:00:01:51.153
00:09:41.331 : en:00:09:41.331
00:18:57.011 : en:00:18:57.011
00:27:09.837 : en:00:27:09.837
00:39:44.465 : en:00:39:44.465
00:49:16.328 : en:00:49:16.328
00:59:46.041 : en:00:59:46.041
01:00:39.052 : en:01:00:39.052 Batman: Year One là bộ phim hoạt hình phụ thuộc trên bộ graphic novel cùng tên của Frank Miller (300, Sin City, The Dark Knight Returns).

Year One nói về thời (gian) kỳ đầu sau khi Bruce Wayne trở lại Gotham sau 12 năm luyện tập võ thuật và nhiều kỹ năng khác ở nước ngoài, và sĩ quan cảnh sát Jim Gordon từ Chicago bị chuyển công tác sang Gotham phải mang cả gia đình theo. Cả 2 người chứng kiến sự thối nát của cảnh sát và bọn tội phạm ở Gotham. Phim (truyện) cũng nói đến cô gái điếm Selina Kyle vừa bắt đầu mặc bộ trang phục mèo và trở thành 1 tên trộm như thế nào (có liên quan đến Batman)

Batman: Year One được xếp hàng đầu trong top 25 graphic novels hay nhất về Batman.

Về phim:

- Năm 2000, Warner Bros vừa mời Darren Aronofsky (Requiem for a Dream, Black Swan, The Fountain) làm 1 phim về Batman (để reboot lại series này sau thất bại của Batman & Robin) phụ thuộc theo Batman: Year One. Darren và Frank Miller cũng vừa làm chuyện với nhau về kịch bản cho dự án này, nhưng cuối cùng không tiếp tục được.

- Batman Begins của Nolan cũng có 1 số rõ hơn lấy trong bộ Year One này, trong đó đáng nhớ nhất là cảnh Batman dùng sóng âm tần số cao để gọi đàn dơi đến giúp trong khi bị cảnh sát bao vây. Screenshot:

Bấm vào đây để đăng nhập và xem link! Bấm vào đây để đăng nhập và xem link! Bấm vào đây để đăng nhập và xem link! Bấm vào đây để đăng nhập và xem link! Bấm vào đây để đăng nhập và xem link! Phụ Đề Việt Bấm vào đây để đăng nhập và xem link! Unlock Mediafire: mockingbirdreal@ketnooi.com/forum

Unrar: hd-united.com


Lưu ý khi sử dụng

- Gặp Link download hỏng, hãy đăng trả lời (yêu cầu link download mới), Các MOD sẽ cập nhật link sớm nhất
- Tìm kiếm trước khi đăng bài mới

Chủ đề liên quan:
By peju_kyumin
#543702 phim ng đóng thì máu chứ hoạt hình thì không ham hố ...

vẫn thanks bác chim nhại 1 cái :p
Kết nối đề xuất: