By ngothanhtai89
#537968 The Expendables 2 |Brrip m720p x264 - 1,14Gb|
Biệt Đội Đánh Thuê 2 - 2012 [Thuyết Minh Tiếng Việt]






Đạo diễn: Simon West
Diễn viên: Sylvester Stallone, Jason Statham, Jean-Claude Van Damme, Jet Li, Dolph Lundgren, Chuck Norris, Bruce Willis, Arnold Schwarzenegger, Terry Crews, Randy Couture, Liam Hemsworth
Thời lượng: 103 phút
Thể loại: Hành động - Kinh dị
Năm sản xuất: 2007
Ratings: 7.4/10 from 55,079 users
Bấm vào đây để đăng nhập và xem link!

Format : MPEG-4

Format profile : Base Media

Codec ID : isom

File size : 1.14 GiB

Duration : 1h 42mn

Overall bit rate mode : Variable

Overall bit rate : 1 598 Kbps


Video

ID : 1

Format : AVC

Format/Info : Advanced Video Codec

Format profile : High@L3.1

Format settings, CABAC : Yes

Format settings, ReFrames : 4 frames

Codec ID : avc1

Codec ID/Info : Advanced Video Coding

Duration : 1h 42mn

Bit rate : 1 400 Kbps

Maximum bit rate : 9 539 Kbps

Width : 1 280 pixels

Height : 528 pixels

Display aspect ratio : 2.40:1

Frame rate mode : Constant

Frame rate : 23.976 fps

Color space : YUV

Chroma subsampling : 4:2:0

Bit depth : 8 bits

Scan type : Progressive

Bits/(Pixel*Frame) : 0.086

Stream size : 1 024 MiB (88%)


Audio

ID : 2

Format : AAC

Format/Info : Advanced Audio Codec

Format profile : LC

Codec ID : 40

Duration : 1h 42mn

Bit rate mode : Variable

Bit rate : 192 Kbps

Maximum bit rate : 268 Kbps

Channel(s) : 2 channels

Channel positions : Front: L R

Sampling rate : 48.0 KHz

Compression mode : Lossy

Delay relative to video : -3s 337ms

Stream size : 142 MiB (12%)

Language: English - Thuyết Minh Việt



Sau khi thực hiện một nhiệm vụ tưởng chừng như đơn giản cho Mr. Church, biệt đội đánh thuê phát hiện ra sai lầm trong kế hoạch của họ, dẫn đến một thành viên bị giết dưới tay Jean Vilain. Bằng tất cả giá, họ trở lại nơi kẻ địch đang cư ngụ - với hai thành viên mới là Billy the Kid (Liam Hemsworth) và Maggie (Yu Nan) - nhằm ngăn chặn một vũ khí chết người và trả thù cho người anh em của mình. The Expendables 2 sẽ chính thức ra Rạp tai Đức ngày 30/08/2012. Phim được thực hiện bởi đạo diễn Simon West cùng dàn diễn viên: Jason Statham, Bruce Willis, Liam Hemsworth, Arnold Schwarzenegger, Sylvester Stallone, Jean-Claude Van Damme, Chuck Norris, Jet Li.






http://www.fshare.vn/file/TVMPXW49XT
Bấm vào đây để đăng nhập và xem link!
01. Bấm vào đây để đăng nhập và xem link!

02. Bấm vào đây để đăng nhập và xem link!

03. Bấm vào đây để đăng nhập và xem link!

04. Bấm vào đây để đăng nhập và xem link!

05. Bấm vào đây để đăng nhập và xem link!

06. Bấm vào đây để đăng nhập và xem link!

07. Bấm vào đây để đăng nhập và xem link!
Bản này Audio Thuyết Minh Việt nhé
Chicharito_82 Nguồn: Hungdaita-i-max.vn


Click Thanks và Comments để động viên nha!

Kết nối đề xuất: