By tieududu_1612
#531930
...........100 Days with Mr. Arrogant...........


Cốt truyện

Ahn Hyun Joon (Kim Jae Won), sinh viên đại học, đẹp trai, học giỏi, con nhà giàu. Anh là niềm mơ ước của bao cô gái. Nhưng anh quan niệm, con gái là phiền phức, nên rất hống hách, và chẳng màng quan tâm để ý đến cô nào. Anh không ngờ rằng có một ngày thần Cupid cũng bắn mũi tên tình ái, dưới hình dạng một lon nước, trúng mình. Anh sẽ làm gì với mũi tên tình ái đặc biệt này?

Kang Ha Young (Ha Ji Won), một nữ sinh lớp 12, học dốt, nghịch ngợm nhưng cũng đầy mộng mơ. Cũng như bao bạn gái khác cùng trang lứa, cô mơ sẽ có một ngày được gặp chàng bạch mã hoàng tử của đời mình. Nhưng ngược với ước mơ của cô, bạn trai cô nói lời chia tay ngay trước kỉ niệm 100 ngày quen nhau của hai người. Chán nản, thất tình, cô lang thang ngoài đường và vô tình đá lon nước trúng vào đầu một anh chàng lái chiếc xe Lexus430 siêu đắt. Hậu quả là chiếc xe bị trầy một vết xước nhỏ. Nhưng vì còn là học sinh, không có tiền bồi thường, Kang Ha Young đành phải làm nô lệ trong 100 ngày cho anh chàng nhà giàu kênh kiệu kia để trả nợ dần. Kể từ đó cũng bắt đầu 100 ngày dở khóc dở cười với bao tình huống trớ trêu của cô nàng. Nhưng chuyện không chỉ dừng lại ở ngày làm nô lệ thứ 100 của cô...

Trailer




Thông Tin Phim

Code: General
Complete name : C:UsersSteveDesktop100 Days With Mr Arrogant.mp4
Format : MPEG-4
Format profile : Base Media / phiên bản 2
Codec ID : mp42
File size : 1.30 GiB
Duration : 1h 35mn
Overall bit rate mode : Variable
Overall bit rate : 1 946 Kbps
Encoded date : UTC 2011-05-18 20:17:18
Tagged date : UTC 2011-05-18 20:17:18



Video
ID : 1
Format : AVC
Format/Info : Advanced Video Codec
Format profile : [email protected]
Format settings, CABAC : Yes
Format settings, ReFrames : 1 frame
Format settings, GOP : M=1, N=30
Codec ID : avc1
Codec ID/Info : Advanced Video Coding
Duration : 1h 35mn
Bit rate : 1 788 Kbps
Maximum bit rate : 6 825 Kbps
Width : 1 280 pixels
Height : 720 pixels
Display aspect ratio : 16:9
Frame rate mode : Variable
Frame rate : 23.976 fps
Minimum frame rate : 23.810 fps
Maximum frame rate : 24.390 fps
Color space : YUV
Chroma subsampling : 4:2:0
Bit depth : 8 bits
Scan type : Progressive
Bits/(Pixel*Frame) : 0.081
Stream size : 1.20 GiB (92%)
Tagged date : UTC 2011-05-18 20:24:00

Audio
ID : 2
Format : AAC
Format/Info : Advanced Audio Codec
Format profile : LC
Codec ID : 40
Duration : 1h 35mn
Bit rate mode : Variable
Bit rate : 152 Kbps
Maximum bit rate : 208 Kbps
Channel(s) : 2 channels
Channel positions : Front: L R
Sampling rate : 44.1 KHz
Compression mode : Lossy
Stream size : 104 MiB (8%)
Encoded date : UTC 2011-05-18 20:19:28
Tagged date : UTC 2011-05-18 20:24:00

Hình ảnh trong phim


Bấm vào đây để đăng nhập và xem link!

Download

(Phụ đề vừa có trong folder)

Code: http://www.fshare.vn/folder/T97VHPHXWT/

Khuyến cáo : Trong phim có những hình ảnh tương đối " bựa" , không nên xem phim trong khi đang ăn uống hoặc... ngồi cạnh người yêu ^^


Now, enjoy it and fun !

Acc Vip Fshare :


Lưu ý khi sử dụng

- Gặp Link download hỏng, hãy đăng trả lời (yêu cầu link download mới), Các MOD sẽ cập nhật link sớm nhất
- Tìm kiếm trước khi đăng bài mới

Chủ đề liên quan:
By ngomytien
By ilu4e_2t
#532160 bác xem nhanh thế, hay xem lâu rồi em xem lâu ùi bác à, phim này có bài I will survise tiếng Hàn, em khoái bài này và tìm mãi ^^

mà cuối phim em cũng chả hiểu nữa, thêm 1 thằng nhỏ đá cái lon, thế là... câu chuyện nô lệ lại tiếp tục, vậy là ông nhân vật chính không biết .. dụt đâu nữa, nhưng coi phim này relax thật đã.
By rt_ht
#532199 em xem lâu ùi bác à, phim này có bài I will survise tiếng Hàn, em khoái bài này và tìm mãi ^^

mà cuối phim em cũng chả hiểu nữa, thêm 1 thằng nhỏ đá cái lon, thế là... câu chuyện nô lệ lại tiếp tục, vậy là ông nhân vật chính không biết .. dụt đâu nữa, nhưng coi phim này relax thật đã. bạn có nhớ đoạn đầu ông thầy đưa tay vào mũi ko
Kết nối đề xuất: