By titihenry_vn2004
#522704 [MF-US Lông Tiếng ] The Moon Embracing The Sun -Nhật Nguyệt Tình Sử 2012 .DVDRip XviD AC3
Cập nhật Complete 20/20 Tập .






Nội Dung

Bộ phim xoay quanh chuyện tình giữa Lee Hwon (Kim Soo Hyun) và một nữ pháp sư tên Wol do Han Ga In đóng.

Wol được sinh ra trong một gia đình quý tộc và khi sắp trở thành thái tử bay thì cô bất ngờ phải đối mặt với cái chết. Sau đó cô trở lại hoàng cung với thân phận một pháp sư khi vừa mất đi hồi ức

Thông tin thêm

Bộ phim truyền hình của đài MBC “The Moon Embracing the Sun' vừa được bán sang một số nước Châu Á.

Quyền phát sóng bộ phim “The Moon Embracing the Sun” vừa được bán sang Nhật Bản, Thái Lan, Hồng Kông, Singapore, Đài Loan, Malaysia và Indonesia trong khi một số nước ở Châu Âu cũng đề nghị được mua bản quyền bộ phim.

The Moon Embracing the Sun” do Kim Soo Hyun và Han Ga In đóng chính, phụ thuộc trên cuốn tiểu thuyết cùng tên, do biên kịch Jung Eun Gwol chắp bút.

Information

Tên phim: The moon that embraces the sun /해를 품은 달-Nhật Nguyệt Tình Sử.

Thể loại: Cổ trang-Dã Sử-Tình Cảm.

Thời lượng: 20 tập

Khởi chiếu: 14-01-2012

Phát hành:10-05-2012.

Đạo diễn: Kim Do Hoon

Kịch bản: Jin Soo Wan

Official site: TBA
Diễn viên:

[HIDE]Kim Soo Hyun as Lee Hyon

Yeo Jin Goo as child Lee Hyon

Han Ga In as Wol

Kim Yoo Jung as child Wol

Jung Il Woo as Prince Yang Myung / Yang Myung Goon

Lee Min Ho as child Yang Myung Goon

Song Jae Hee as Yeom

Si Wan as child Yeom

Nam Bo Ra as Princess Min Hwa

Ji Jin Hee as child Min Hwa

Song Jae Rim as Woon


Media Info

The Moon Embracing The Sun-Nhật Nguyệt Tình Sử 2012

Format : Matroska

File size : 763 MiB

Duration : 1h 11mn

Overall bit rate : 1 483 Kbps

Encoded date : UTC 2012-05-24 16:39:04

Writing application : mkvmerge v5.0.0 ('Die Wahre Liebe') built on Sep 25 2011 20:33:49

Writing library : libebml v1.2.2 + libmatroska v1.3.0

Video #1

ID : 1

Format : MPEG-4 Visual

Format profile : Advanced Simple@L5

Format settings, BVOP : Yes

Format settings, QPel : No

Format settings, GMC : No warppoints

Format settings, Matrix : Default (H.263)

Codec ID : DX50

Codec ID/Hint : DivX 5

Duration : 1h 11mn

Bit rate : 1 325 Kbps

Width : 624 pixels

Height : 352 pixels

Display aspect ratio : 16:9

Frame rate : 29.970 fps

Color space : YUV

Chroma subsampling : 4:2:0

Bit depth : 8 bits

Scan type : Progressive

Compression mode : Lossy

Bits/(Pixel*Frame) : 0.201

Stream size : 682 MiB (89%)

Writing library : XviD 1.1.2 (UTC 2006-11-01)

Audio #2

ID : 2

Format : MPEG Audio

Format phiên bản : phiên bản 1

Format profile : Layer 3

Mode : Joint stereo

Mode extension : MS Stereo

Muxing mode : Header stripping

Codec ID : A_MPEG/L3

Codec ID/Hint : MP3

Duration : 1h 11mn

Bit rate mode : Constant

Bit rate : 128 Kbps

Channel(s) : 2 channels

Sampling rate : 44.1 KHz

Compression mode : Lossy

Stream size : 65.8 MiB (9%)










Trailer




************************************************** ***


Cập nhật trọn bộ Complete: 20/20 Tập.

dvtd2016



Tập 01
http://www.mediafire.com/?1zabajr8b7303
Tập 02
http://www.mediafire.com/?1agpqnqvfrnfa
Tập 03
http://www.mediafire.com/?uf132x99wfbo0
Tập 04
http://www.mediafire.com/?xfemy22mm62fv
Tập 05
http://www.mediafire.com/?q5gw5szac0waw
Tập 06
http://www.mediafire.com/?6ob06rcs8hlab
Tập 07
http://www.mediafire.com/?omdbjq4oeeh64
Tập 08
http://www.mediafire.com/?3w5ddb4qe9zgp
Tập 09
http://www.mediafire.com/?m095kzmeb6e0h
Tập 10
http://www.mediafire.com/?tx3npc5wnpptp
Tập 11
http://www.mediafire.com/?72a0uq00ssfx0
Tập 12
http://www.mediafire.com/?9nnf9tcgr3xwc
Tập 13
http://www.mediafire.com/?a3c0crpmmppr7
Tập 14
http://www.mediafire.com/?fxbbqelxzb3ha

Tập 15
http://www.mediafire.com/?vqjw4t74xmqim

Tập 16
http://www.mediafire.com/?czac57fag9b22
Tập 17
http://www.mediafire.com/?bhs9zu2m2b36s
Tập 18
http://www.mediafire.com/?orgazhgevcgca
Tập 19
http://www.mediafire.com/?ws9j6s2ivjv3w
Tập 20 End
http://www.mediafire.com/?7po0b0bknczi0

_-_The end_-_


Pass unlock: quocvuong_vn2004

hoặc

ketnooi.com/forum


************************************************** *******

Mọi thắc mắc các bạn có thể Phần mềm cho mình vào trang cá nhân hay trong Topic.Mình sẽ Suppost các bạn nhanh nhất.
Done.Have Fun!!!

Lưu ý khi sử dụng

- Gặp Link download hỏng, hãy đăng trả lời (yêu cầu link download mới), Các MOD sẽ cập nhật link sớm nhất
- Tìm kiếm trước khi đăng bài mới

Chủ đề liên quan:
By i_love_my_friends66
#522734 Phim hay vậy.Mà phim nhiểu lượt download xuống.

Không ai có ý kiến đánh giá à.?
By Gia_Khoa
#522741 Thank bạn nha

Bạn ơi NhatNguyetTinhSu_08_-_ Upby quocvuong_vn2004.avi.003 có 2 pat 003, thiếu pat 002
By kuyeongthanh
#522754 Thank bạn nha

Bạn ơi NhatNguyetTinhSu_08_-_ Upby quocvuong_vn2004.avi.003 có 2 pat 003, thiếu pat 002 Mình vừa Fix lại rồi nhé.
By HoangLinh_BacKan
#522761 hì cứ từ từ, mới đăng mà, thể loại này mấy bạn nữ mê tít
By meoconrangsun_123
#522762 hì cứ từ từ, mới đăng mà, thể loại này mấy bạn nữ mê tít Em thì bạn gái KẾT Action.Nhưng thể loại này e thích...
By Fitzpatrick
#522829 Chủ thớt up lại part 3 tập 9 với nhé. Bị lỗi không down dc. Tks!
By bobotinhnghich
#522833 Thank nhiều !

Đang từ từ down.

Lâu rồi không coi phim Hàn.
Kết nối đề xuất: