Hình đại diện của thành viên
By motminh07
#517607



General
Unique ID : 183324269290107718353755817907078219164 (0x89EAF85056BB809DBB435BA05AEAC59C)
Complete name : D:\Seeking.a.Friend.for.the.End.of.the.World.2012.BluRay.720p.DTS.x264-CHD_kunngoc_hdvn.mkv
Format : Matroska
Format version : phiên bản 2
File size : 4.35 GiB
Duration : 1h 41mn
Overall bit rate : 6 170 Kbps
Encoded date : UTC 2012-10-10 14:52:42
Writing application : mkvmerge v3.2.0 ('Beginnings') 编译于 Feb 12 2010 16:46:17
Writing library : libebml v0.7.9 + libmatroska v0.8.1

Video
ID : 1
Format : AVC
Format/Info : Advanced Video Codec
Format profile : [email protected]
Format settings, CABAC : Yes
Format settings, ReFrames : 9 frames
Codec ID : V_MPEG4/ISO/AVC
Duration : 1h 41mn
Bit rate : 4 662 Kbps
Width : 1 280 pixels
Height : 546 pixels
Display aspect ratio : 2.35:1
Frame rate mode : Constant
Frame rate : 23.976 fps
Color space : YUV
Chroma subsampling : 4:2:0
Bit depth : 8 bits
Scan type : Progressive
Bits/(Pixel*Frame) : 0.278
Stream size : 3.20 GiB (74%)
Title : Seeking.a.Friend.for.the.End.of.the.World.2012
Writing library : x264 core 125 r2208 d9d2288
Encoding settings : cabac=1 / ref=9 / deblock=1:-3:-3 / analyse=0x3:0x113 / me=umh / subme=10 / psy=1 / psy_rd=1.00:0.05 / mixed_ref=1 / me_range=32 / chroma_me=1 / trellis=2 / 8x8dct=1 / cqm=0 / deadzone=21,11 / fast_pskip=0 / chroma_qp_offset=-2 / threads=8 / lookahead_threads=1 / sliced_threads=0 / nr=0 / decimate=1 / interlaced=0 / bluray_compat=0 / constrained_intra=0 / bframes=5 / b_pyramid=2 / b_adapt=2 / b_bias=0 / direct=3 / weightb=1 / open_gop=0 / weightp=2 / keyint=250 / keyint_min=23 / scenecut=40 / intra_refresh=0 / rc=2pass / mbtree=0 / bitrate=4662 / ratetol=1.0 / qcomp=0.70 / qpmin=0 / qpmax=69 / qpstep=4 / cplxblur=20.0 / qblur=0.5 / ip_ratio=1.40 / pb_ratio=1.30 / aq=2:0.80
Language : English
Default : No
Forced : No

Audio
ID : 2
Format : DTS
Format/Info : Digital Theater Systems
Codec ID : A_DTS
Duration : 1h 41mn
Bit rate mode : Constant
Bit rate : 1 510 Kbps
Channel(s) : 6 channels
Channel positions : Front: L C R, Side: L R, LFE
Sampling rate : 48.0 KHz
Bit depth : 24 bits
Compression mode : Lossy
Stream size : 1.07 GiB (24%)
Title : DTS-CORE 1536K
Language : English
Default : Yes
Forced : No

Thể loại: Hài, Tình cảm, Tâm lý
Diễn Viên: Steve Carell, Keira Knightley
Nước sản xuất: Mỹ

Khi thiên thạch Matilda dần tiếp cận Trái Đất, loài người hiểu rằng họ chỉ còn có thể tồn tại thêm đúng ba tuần nữa. Với Dodge (Steve Carell), anh chỉ còn lại một mình sau khi người vợ hoảng sợ và bỏ đi. Thế là Dodge quyết định đi tìm kiếm mối tình từ thời trung học, với mong ước được nguôi ngoai phần nào trong quãng thời gian sống còn lại. Đồng hành với anh là cô hàng xóm Penny (Keira Knightley) với một tính cách có phần dị biệt. Họ chỉ còn lại có đúng ba tuần lễ...

Seeking a Friend for the End of the World là tác phẩm đạo diễn đầu tay của Lorene Scafaria và do chính cô viết kịch bản.

Bộ phim sẽ ra rạp vào tháng 10/2012 với dàn diễn viên nổi tiếng Steve Carell và Keira Knightley.





Download
Bấm vào đây để đăng nhập và xem link!

1link
Bấm vào đây để đăng nhập và xem link!

Multi link
Bấm vào đây để đăng nhập và xem link!
Bấm vào đây để đăng nhập và xem link!
Bấm vào đây để đăng nhập và xem link!
Bấm vào đây để đăng nhập và xem link!
Bấm vào đây để đăng nhập và xem link!
Bấm vào đây để đăng nhập và xem link!

Subviet
Bấm vào đây để đăng nhập và xem link!

Kết nối đề xuất: