By hotgay_boy90
#514801



D:\The.Monkey.King.3D.2011.1080P.WEB-DL\The.Monkey.King.3D.2011.1080P.WEB-DL.mkv

General

Unique ID : 215368910111344789564894064456609683789 (0xA2068B1630BC2386AD7596BF41F5D94D)

Complete name : D:\The.Monkey.King.3D.2011.1080P.WEB-DL\The.Monkey.King.3D.2011.1080P.WEB-DL.mkv

Format : Matroska

File size : 1.77 GiB

Duration : 1h 26mn

Overall bit rate : 2 935 Kbps

Movie name : ????3D

Encoded date : UTC 2012-02-20 09:15:32

Writing application : mkvmerge v4.0.0 ('The Stars were mine') ??? Jun 6 2010 16:18:42

Writing library : libebml v1.0.0 + libmatroska v1.0.0

Video #1

ID : 1

Format : AVC

Format/Info : Advanced Video Codec

Format profile : High@L4.1

Format settings, CABAC : Yes

Format settings, ReFrames : 4 frames

Format settings, GOP : M=1, N=32

Codec ID : V_MPEG4/ISO/AVC

Duration : 1h 26mn

Bit rate : 2 749 Kbps

Width : 1 920 pixels

Height : 1 028 pixels

Display aspect ratio : 1.868

Frame rate : 25.000 fps

Color space : YUV

Chroma subsampling : 4:2:0

Bit depth : 8 bits

Scan type : Progressive

Bits/(Pixel*Frame) : 0.056

Stream size : 1.66 GiB (94%)

Title : ????3D

Writing library : x264 core 104 r1688 0b36c6d

Encoding settings : cabac=1 / ref=3 / deblock=1:0:0 / analyse=0x3:0x113 / me=hex / subme=7 / psy=1 / psy_rd=1.00:0.00 / mixed_ref=1 / me_range=16 / chroma_me=1 / trellis=1 / 8x8dct=1 / cqm=0 / deadzone=21,11 / fast_pskip=1 / chroma_qp_offset=-2 / threads=12 / sliced_threads=0 / nr=0 / decimate=1 / interlaced=0 / constrained_intra=0 / bframes=3 / b_pyramid=2 / b_adapt=1 / b_bias=0 / direct=1 / weightb=1 / open_gop=0 / weightp=2 / keyint=250 / keyint_min=25 / scenecut=40 / intra_refresh=0 / rc_lookahead=40 / rc=crf / mbtree=1 / crf=23.0 / qcomp=0.60 / qpmin=10 / qpmax=51 / qpstep=4 / ip_ratio=1.40 / aq=1:1.00 Language : Chinese


Audio #2

ID : 2

Format : AC-3

Format/Info : Audio Coding 3

Mode extension : CM (complete main)

Codec ID : A_AC3

Duration : 1h 26mn

Bit rate mode : Constant

Bit rate : 128 Kbps

Channel(s) : 2 channels

Channel positions : Front: L R

Sampling rate : 48.0 KHz

Bit depth : 16 bits

Compression mode : Lossy

Stream size : 79.0 MiB (4%)

Title : ?? Language : Chinese


Text #3

ID : 3

Format : UTF-8

Codec ID : S_TEXT/UTF8

Codec ID/Info : UTF-8 Plain Text

Title : ?? Language : Chinese

Nội dung:


Được sản xuất từ năm 1964, bộ phim hoạt hình từng đoạt nhiều giải thưởng Tôn Ngộ Không đại náo thiên cung là 1 trong những phim hoạt hình Trung Quốc nổi tiếng nhất. Giờ đây, bộ phim hoạt hình kinh điển này đang được “chế” thành phim 3D và sẽ ra rạp chiếu vào tháng 1/2012.

Tuy nhiên, ê-kíp làm bản phim 3D đang e sợ không biết phim có chinh phục được khán giả hay không khi vừa có vô số phim hoạt hình sử dụng cốt truyện trong tiểu thuyết Tây Du Ký, song nhiều người vẫn coi bộ phim được dàn dựng từ năm 1964 là độc đáo và đáng nhớ nhất. Bản phim 3D được rút ngắn xuống còn 80 phút, trong khi bản phim gốc dài 100 phút.


Bấm vào đây để đăng nhập và xem link!


Bấm vào đây để đăng nhập và xem link!

Bấm vào đây để đăng nhập và xem link! Bấm vào đây để đăng nhập và xem link!


Lưu ý khi sử dụng

- Gặp Link download hỏng, hãy đăng trả lời (yêu cầu link download mới), Các MOD sẽ cập nhật link sớm nhất
- Tìm kiếm trước khi đăng bài mới

Chủ đề liên quan:
By Lorence
By lolita_lee
#515619 phim nay được làm lại từ cái bản cũ đúng hem ta chứ nhớ xem lâu lắm rồi mà...
Kết nối đề xuất: