By thanhtan19812001
#512216
Giới thiệu


Danh hài nổi tiếng của "50 First Dates" và minh tinh tóc vàng Jennifer Aniston mang đến cho khán giả VN những giây phút lãng mạn, hài hước trong bộ phim tình cảm hài mới có tên "Cô vợ hờ".


Sau khi bị ám ảnh bởi mối tình không thành 20 năm về trước, Danny (do Adam Sandler thủ vai), một bác sĩ phẫu thuật đào hoa vừa nghĩ ra một chiêu thức "cưa gái" vô cùng hiệu quả. Anh luôn mang chiếc nhẫn cưới giả bên mình và vờ như một người đàn ông vừa có vợ, nhưng cuộc hôn nhân không hạnh phúc. Nhờ lớp vỏ bọc đáng thương ấy mà bao cô gái trẻ, đẹp vừa ngã vào lòng Danny. Một ngày mánh khóe này bị vô hiệu hóa khi anh chàng dính phải "tiếng sét ái tình" với nữ giáo viên có thân hình rực lửa Palmer (do Brooklyn Decker thủ vai).


Palmer phát hiện ra chiếc nhẫn giả trong túi của Danny và để cứu vãn tình thế, chàng bác sĩ phải nhờ cậy tới nữ trợ lý lâu năm Katherine (do Jennifer Aniston đóng). Katherine sẽ vào vai cô vợ đỏng đảnh, khó chiều của Danny và thuyết phục Palmer rằng họ sắp ly dị. Rắc rối xảy ra khi cả ba người, cùng với hai đứa trẻ nhà Katherine buộc phải tham gia một chuyến du lịch tới Hawaii. Tại đây, màn kịch vẫn tiếp tục được diễn ra nhưng Danny chợt nhận thấy anh muốn chấm dứt tất cả chuyện này và đi tìm một tình yêu thực sự.

Screens




Trailer


Release Info

Video

ID : 0

Format : MPEG-4 Visual

Format profile : [email protected]

Format settings, BVOP : Yes

Format settings, QPel : No

Format settings, GMC : No warppoints

Format settings, Matrix : Custom

Codec ID : XVID

Codec ID/Hint : XviD

Duration : 1h 56mn

Bit rate : 1 735 Kbps

Width : 720 pixels

Height : 384 pixels

Display aspect ratio : 1.875

Frame rate : 23.976 fps

Resolution : 24 bits

Colorimetry : 4:2:0

Scan type : Progressive

Bits/(Pixel*Frame) : 0.262

Stream size : 1.41 GiB (82%)

Writing library : XviD 58


Audio

ID : 1

Format : AC-3

Format/Info : Audio Coding 3

Codec ID : 2000

Duration : 1h 56mn

Bit rate mode : Constant

Bit rate : 384 Kbps

Channel(s) : 6 channels

Channel positions : Front: L C R, Surround: L R, LFE

Sampling rate : 48.0 KHz

Stream size : 320 MiB (18%)

Alignment : Aligned on interleaves

Interleave, duration : 64 ms (1.53 video frames)

Interleave, preload duration : 192 ms

IMDB Info

On a weekend trip to Hawaii, a plastic surgeon convinces his loyal assistant to pose as his soon-to-be-divorced wife in order to cover up a careless lie he told to his much-younger girlfriend.


Director:

Dennis Dugan

Writers:

Allan Loeb (screenplay), Timothy Dowling (screenplay), and 4 more credits »

Stars:

Adam Sandler, Jennifer Aniston and Brooklyn Decker | See full cast and crew

Download

Download (đã bao gồm sub):
Bấm vào đây để đăng nhập và xem link!
Bấm vào đây để đăng nhập và xem link!


Lưu ý khi sử dụng

- Gặp Link download hỏng, hãy đăng trả lời (yêu cầu link download mới), Các MOD sẽ cập nhật link sớm nhất
- Tìm kiếm trước khi đăng bài mới

Chủ đề liên quan:
By candybietyeu
Kết nối đề xuất: