By Ambros
#507133 Không nổi tiếng như phim Mỹ.

Không ồn ào như phim Tàu.

Không mùi mẫn như phim Hàn.

Người Pháp vẫn cho ra đời các tác phẩm điện ảnh khiến chúng ta phải tiếc nối khi giai điệu cuối cùng vang lên.

Chất thơ, tiếng nhạc, sự lãng mạn trong mỗi tác phẩm hòa quyện với sự tự do vốn có của 1 dân tộc tiên tiến luôn có những sức hút riêng với những ai biết mở lòng tiếp nhận cái mới và yêu tự do.


Laura les ombres de lete 1979 - 18+

Mùa hè bóng mát





Trong làn hơi nước hư hư thực thực, 1 cô bé lấp lánh làm gã trung niên phải nhắm mắt bồi hồi.

Trong quán nước, cô bé kia bằng xương bằng thịt lại 1 lần nữa làm gã tò mò dù rằng chưa 1 lần giáp mặt.

Trong lớp bale cô bé kia mĩm cười khiến gã sướng rân người, gã tiến đến, tiến đến ... và ... mẹ cô bé - cũng là người tình củ của gã sau bao năm xa cách bỗng dưng xuất hiện lấp khoảng trống giữa 2 người (Trời ạ, sao mà ác thế).

Đúng như tên gọi - Mùa hè bóng mát - Những cô bé mơn mởn vô tư khoe mẽ khiến chúng ta phải chạnh lòng. Dường như nó là thứ thần dược mà chúng ta luôn cần đến - Hè thì mát, đông lại nóng hực người.

* Lưu ý: Phim có nhiều cảnh nuy, bạn cần suy nghĩ trước khi xem.

* Cảm nhận: Bắt cô bé mới trạc 14 tuổi hoàn toàn khỏa thân đóng cảnh ái ân của người lớn lên màn ảnh - Bọn Pháp thực sự dã man - Dù mình rất rất KẾT ngắm thiên thần đó.




Giới thi
Code: Đạo diễn: David Hamilton
Diễn viên: Maud Adams, Dawn Dunlap and James Mitchell
Thể loại: Drama - Romance
Quốc gia: Pháp
Năm: 1979
Dung lượng: 1.37 GiB
Độ dài: 1h 26mn
IMDB:
Bấm vào đây để đăng nhập và xem link!



Download - Sub Việt kèm Folder
Link tor: Bấm vào đây để đăng nhập và xem link!
Cách kéo tor nhanh:
Cách download torrent tốc đô cao

Lưu ý khi sử dụng

- Gặp Link download hỏng, hãy đăng trả lời (yêu cầu link download mới), Các MOD sẽ cập nhật link sớm nhất
- Tìm kiếm trước khi đăng bài mới

Chủ đề liên quan:
By pe_shock_yeu_anh_oy
#507170 box h lắm phim 18+ kiểu này quá ==!
Blog Tâm sự:
  • Tôi đã tìm được người con gái bị mình hại đời | 01:04 ...
  • Đồng nghiệp dọa gửi ảnh ngoại tình của tôi cho vợ tôi biết | 01:04 ...
  • Cãi nhau với tôi sau 2 ngày em đã đi lấy chồng | 02:05 ...
  • Tôi chẳng thể tiến xa hơn vì em đã có gia đình | 12:04 ...
  • Bạn gái đòi chia tay khi biết tôi có tình cảm với người khác | 01:05 ...
  • Luôn bị chồng tra tấn tinh thần sau khi tôi thú nhận say nắng | 01:05 ...
By Fitzpatrick
#507177 Phim nào có mấy em khoe hàng phải đóng mác + vào đó thôi bác, mình không phải là tạo sự chú ý mà chỉ muốn thông báo trước thôi, thanks bác.
By chucongtu86
#507178 Ma vie en rose.XviD.(1997)

Cuộc đời hoa hồng





Ludovic là cậu bé trai luôn mong ước sẽ trở thành người phụ nữ khi lớn lên. Chúng ta thấy được những khó khăn cậu bé gặp phải từ gia đình theo đạo Thiên Chúa Giáo và cộng đồng dân cư. Quan trọng và hay nhất là các vấn đề giới tính và sự chuyển đổi giới tính trong bộ phim được thể hiện dưới cái nhìn của một cậu bé - nhân vật chính của bộ phim




Giới thiệu
Code: Đạo diễn: Alain Berliner
Diễn viên: Georges Du Fresne, Michèle Laroque and Jean-Philippe Écoffey
Thể loại: Drama
Quốc gia: Pháp
Năm: 1997
Dung lượng: 702 MiB
Độ dài: 1h 29mn
IMDB: Ratings: 7.3/10 from 5,620 users
Bấm vào đây để đăng nhập và xem link!

Media Info
Code: General
Complete name : E:\Ma Vie En Rose (1997)\Ma Vie En Rose (1997) www.makingoff.org (subs PT.Eng.Dut.Pol.Cze) Finaendor\Ma Vie En Rose (1997) www.makingoff.org Finaendor.avi
Format : AVI
Format/Info : Audio Video Interleave
File size : 702 MiB
Duration : 1h 29mn
Overall bit rate mode : Variable
Overall bit rate : 1 100 Kbps
Writing application : Nandub v1.0rc2
Writing library : Nandub build 1852/release

Video
ID : 0
Format : MPEG-4 Visual
Format profile : Advanced [email protected]
Format settings, BVOP : 2
Format settings, QPel : No
Format settings, GMC : No warppoints
Format settings, Matrix : Default (H.263)
Muxing mode : Packed bitstream
Codec ID : XVID
Codec ID/Hint : XviD
Duration : 1h 29mn
Bit rate : 960 Kbps
Width : 576 pixels
Height : 320 pixels
Display aspect ratio : 16:9
Frame rate : 23.976 fps
Color space : YUV
Chroma subsampling : 4:2:0
Bit depth : 8 bits
Scan type : Progressive
Compression mode : Lossy
Bits/(Pixel*Frame) : 0.217
Stream size : 612 MiB (87%)
Writing library : XviD 1.0.3 (UTC 2004-12-20)

Audio
ID : 1
Format : MPEG Audio
Format phiên bản : phiên bản 1
Format profile : Layer 3
Mode : Joint stereo
Mode extension : MS Stereo
Codec ID : 55
Codec ID/Hint : MP3
Duration : 1h 29mn
Bit rate mode : Variable
Bit rate : 128 Kbps
Channel(s) : 2 channels
Sampling rate : 48.0 KHz
Compression mode : Lossy
Stream size : 81.4 MiB (12%)
Alignment : Aligned on interleaves
Interleave, duration : 24 ms (0.58 video frame)
Interleave, preload duration : 371 ms
Writing library : LAME3.96r
Encoding settings : -m j -V 4 -q 3 -lowpass 17.5 --abr 128


Download - Sub Việt kèm Folder
Bấm vào đây để đăng nhập và xem link!
By Gregson
#507186 ủng hộ topic như vừa hứa nè.18+ Hàn thì thường quá,hay thể loại 18+ bây giờ tình tiết quá nhạt,có nhiều khoảng trống trong phim nên xem như kịch vậy,có thể nói topic này thuộc thể hiếm,diễn viên xưa tướng múp ghê...
By crocodile_9x
#507187 ủng hộ topic như vừa hứa nè.18+ Hàn thì thường quá,hay thể loại 18+ bây giờ tình tiết quá nhạt,có nhiều khoảng trống trong phim nên xem như kịch vậy,có thể nói topic này thuộc thể hiếm,diễn viên xưa tướng múp ghê... Mình vẫn KẾT đồ cổ hơn, sâu lắng và nhiều tính nhân văn, lúc buồn lôi ra ngâm kíu là số 1.
By nh0cken_kute
#507204 VNZ chắc phải lập lại box Phim Tình Cảm tâm lý như trước Mình KẾT lập 1 box cho riêng mình để post phim vào đó mình dễ quản lý hơn, tập trung hơn, link nào die mình biết và up lại ngay, thanks.
By vuongquoc_saobang2000
#507205 Les quatre cents coups (1959)

Cơn thịnh nộ







"Nhất quỷ nhì ma thứ ba học trò".

Tại sao có câu nói ấy?

Ở đâu có câu chuyện ấy?

Chúng ta hãy quay về nữa trước thế kỷ trước, tại nước PHáp tráng lệ, cùng xem các cô cậu học sinh tiểu học thời bấy giờ bầy những trò gì để được lên top 3 nhé.




Giới thiệu
Code: Đạo diễn: François Truffaut
Diễn viên: Jean-Pierre Léaud, Albert Rémy and Claire Maurier
Thể loại: Drama - Crime
Phát hành: Mỹ - 1959
Dung lượng: 782 MiB
Độ dài: 1h 39mn
IMDB: Ratings: 8.2/10 from 36,779 users

Bấm vào đây để đăng nhập và xem link!


Media Info
Code: General
Complete name : E:\Les quatre cents coups (1959)\Truffaut - Les 400 Coups (The 400 Blows) 1959 -Fr Engsubt\Truffaut - Les 400 Coups (The 400 Blows) 1959 -Fr Engsubt.avi
Format : AVI
Format/Info : Audio Video Interleave
File size : 782 MiB
Duration : 1h 39mn
Overall bit rate : 1 099 Kbps
Writing application : VirtualDubMod 1.5.4.1 (build 2178/release)
Writing library : VirtualDubMod build 2178/release

Download - Sub Việt kèm Folder
Link tor:
Bấm vào đây để đăng nhập và xem link!
By mr_chen
#507206 toàn film cũ nhỉ, không có film mới từ năm 2000 trở lại đây à bạn chủ thớt?
Kết nối đề xuất: