By cao_nguyen3272
#506855

Code: General
Complete name : Man, Woman & the Wall 2006 mHD BluRay x264-EPiK
Format : Matroska
File size : 1.56 GiB
Duration : 1h 25m
Overall bit rate : 2 615 Kbps
Encoded date : UTC 2010-12-22 00:24:02
Writing application : mkvmerge v4.4.0 ('Die Wiederkehr') built on Oct 31 2010 21:52:48
Writing library : libebml v1.0.0 + libmatroska v1.0.0

Video
ID : 1
Format : AVC
Format/Info : Advanced Video Codec
Format profile : [email protected]
Format settings, CABAC : Yes
Format settings, ReFrames : 6 frames
Muxing mode : Header stripping
Codec ID : V_MPEG4/ISO/AVC
Duration : 1h 25mn
Bit rate : 2 115 Kbps
Width : 1 280 pixels
Height : 648 pixels
Display aspect ratio : 1.975
Frame rate : 23.976 fps
Color space : YUV
Chroma subsampling : 4:2:0
Bit depth : 8 bits
Scan type : Progressive
Bits/(Pixel*Frame) : 0.106
Stream size : 1.26 GiB (81%)
Language : English

Audio
ID : 2
Format : AC-3
Format/Info : Audio Coding 3
Mode extension : CM (complete main)
Muxing mode : Header stripping
Codec ID : A_AC3
Duration : 1h 25mn
Bit rate mode : Constant
Bit rate : 448 Kbps
Channel(s) : 6 channels
Channel positions : Front: L C R, Side: L R, LFE
Sampling rate : 48.0 KHz
Bit depth : 16 bits
Compression mode : Lossy
Stream size : 273 MiB (17%)

Text
ID : 3
Format : UTF-8
Codec ID : S_TEXT/UTF8
Codec ID/Info : UTF-8 Plain Text


Thông Tin

Code: Ryou vừa chuyển đến 1 ngôi nhà mới, kế bên là một cô gái với lối sống phóng khoáng , Những tiếng nước chảy, khi cô gái phòng bên dẫn bạn trai về vừa làm Ryou tò mò nên anh vừa nghe trộm, rồi lắp camera quay trộm cô gái phòng kế bên mình, Sau đó.., điều thật hấp dẫn đang chờ trong phim.
Lưu ý:
- Chưa xem phim này, nhưng lúc kiểm tra source để encode thì thấy có cảnh 18+, còn có phải của em Aoi không thì không biết
- Có phụ đề Việt nhưng không rõ có sync với phim không, ai kiểm tra dùm: Man, Woman and the Wall (Kikareta onna no mirareta yoru) Vietnamese hearing impaired subtitle - Subscene
- Mặc dù phim từ năm 2006 nhưng chất lượng quay + công nghệ transfer quá tồi nên rất nhiều color noise, banding, blocking. Thậm chí có 1 vài cảnh mình cảm giác hình ảnh có phần bị méo đi. Như hình dưới đây, ta cảm giác như em Aoi bị lùn đi, mặc dù bản chất em này cũng lùn tịt, có 1m55. Nói trước như vậy, không tất cả người lại nói mình crop sai [em7]
- Release chậm hơn dự kiến vì ban đầu encode mãi không được, mặc dù avs script đúng, x264 settings chuẩn, soft cũng chạy ngon lành. File log thì lại trắng tinh, không có một chữ nào. Ai dè thay FFmpeg bằng DirectShowSource thì lại vèo vèo (cùi mía thật).
Screenshot



DOWNLOAD


Bấm vào đây để đăng nhập và xem link!

Lưu ý khi sử dụng

- Gặp Link download hỏng, hãy đăng trả lời (yêu cầu link download mới), Các MOD sẽ cập nhật link sớm nhất
- Tìm kiếm trước khi đăng bài mới

Chủ đề liên quan:
By GaDu_H5N1
Kết nối đề xuất: