By myl0v3_15_4erv3r
#504388 oánh dấu lại mai đem ra net kéo xe về

Lưu ý khi sử dụng

- Gặp Link download hỏng, hãy đăng trả lời (yêu cầu link download mới), Các MOD sẽ cập nhật link sớm nhất
- Tìm kiếm trước khi đăng bài mới

Chủ đề liên quan:
By vit_con_superstar199x
#504396 up MF dc không bác Up MF khổ lắm bác, cả ngày chưa up được 1 phim, riết chán không chơi với em nó nữa.
Blog Tâm sự:
  • Gia đình chồng có truyền thống phụ nữ phải làm mọi việc nhà | 12:06 ...
  • Tôi muốn hủy hôn vì chồng sắp cưới chát sex | 01:06 ...
  • Bạn gái tôi nhận quá nhiều điều tiếng xấu | 01:06 ...
  • Con buồn lắm bởi chẳng được mẹ ôm từ khi có thêm em | 02:06 ...
  • Mong em cho anh thêm cơ hội từ bỏ bia rượu | 01:06 ...
  • Tôi chấp nhận làm vợ hai của người đàn ông hơn mình 20 tuổi | 01:06 ...
By bangnhan_3010
#504453 Trasgredire.Ita.Tinto.Brass.DVDRip.2000



[IMG]




1 cô gái lang thang qua công viên, thỉnh thoảng cô liếc nhìn các cặp nhân tình đang quằn quại đắm say và mĩm cười, cuộc đời thật vui.

Bỗng nhiên trong bụi cây bên đường... 1 lưỡi gươm to đùng hướng thẳng vê cô! Không nao núng, cô gái hất tung tà váy mỏng ... Hiệp sĩ đen ngòm làm cho gã trộm kia hoảng hồn tháo chạy.

Khúc dạo đầu khiến tất thảy chúng ta không thể không xem hết các phần còn lại.




Giới thiệu
Code: Đạo diễn: Tinto Brass
Diễn viên: Yuliya Mayarchuk, Jarno Berardi and Francesca Nunzi
Thể loại: Comedy - Drama
Quốc gia: Ý
Năm: 2000
Dung lượng: 1.04 GiB
Độ dài: 1h 26mn
IMDB: Bấm vào đây để đăng nhập và xem link!

Media Info
Code: General
Complete name : D:\1\Trasgredire (2000)\Trasgredire.Ita.Tinto.Brass.DVDRip.2000\Tra sgredire.Ita.T.Brass.2000.DVRDRip .avi
Format : AVI
Format/Info : Audio Video Interleave
File size : 1.04 GiB
Duration : 1h 26mn
Overall bit rate : 1 720 Kbps

Video
ID : 0
Format : MPEG-4 Visual
Format settings, BVOP : No
Format settings, QPel : No
Format settings, GMC : No warppoints
Format settings, Matrix : Default (H.263)
Codec ID : DX50
Codec ID/Hint : DivX 5
Duration : 1h 26mn
Bit rate : 1 515 Kbps
Width : 704 pixels
Height : 424 pixels
Display aspect ratio : 1.660
Frame rate : 25.000 fps
Color space : YUV
Chroma subsampling : 4:2:0
Bit depth : 8 bits
Scan type : Progressive
Compression mode : Lossy
Bits/(Pixel*Frame) : 0.203
Stream size : 940 MiB (88%)
Writing library : DivX 5.0.5 (UTC 2003-04-24)

Audio
ID : 1
Format : MPEG Audio
Format phiên bản : phiên bản 1
Format profile : Layer 3
Mode : Joint stereo
Mode extension : MS Stereo
Codec ID : 55
Codec ID/Hint : MP3
Duration : 1h 26mn
Bit rate mode : Constant
Bit rate : 192 Kbps
Channel(s) : 2 channels
Sampling rate : 48.0 KHz
Compression mode : Lossy
Delay relative to video : 24ms
Stream size : 119 MiB (11%)
Alignment : Split accross interleaves
Interleave, duration : 24 ms (0.60 video frame)


Download
Bấm vào đây để đăng nhập và xem link!
By nguyenthi_nguyen12091989
#504455 Miranda 1985 V_MPEG4/ISO/AVC






Đâu đó trong phòng khách sạn bỗng vang lên tiếng rên rỉ khe khẻ kèm theo đó là: "Em muốn chiếm đoạt anh từ phía sau cơ" "Ồ em thật là ... tương tự 1 con đ.. rẻ tiền ấy".




Giới thiệu
Code: Đạo diễn: Tinto Brass
Diễn viên: Serena Grandi, Andrea Occhipinti, Franco Interlenghi, Andy J. Forest, Franco Branciaroli
Thể loại: Comedy
Năm: 1985
Quốc gia: Ý
Dung lượng: 1.12 GiB
Độ dài: 95 phút
IMDB: http://www.imdb.com/title/tt0089598/

Media Info
Code: General
Complete name : E:\Phim\Miranda (1985)\Miranda.1985.mkv
Format : Matroska
Format phiên bản : phiên bản 2
File size : 1.12 GiB
Duration : 1h 35mn
Overall bit rate : 1 690 Kbps

Video
ID : 1
Format : AVC
Format/Info : Advanced Video Codec
Format profile : [email protected]
Codec ID : V_MPEG4/ISO/AVC
Bit rate : 1 528 Kbps
Width : 848 pixels
Height : 512 pixels
Frame rate : 29.970 fps

Audio
ID : 2
Format : AC-3
Format/Info : Audio Coding 3
Codec ID : A_AC3
Bit rate : 128 Kbps
Channel(s) : 2 channels


Download
Bấm vào đây để đăng nhập và xem link!
By thoconchienbanh_2008
#504458 Up MF khổ lắm bác, cả ngày chưa up được 1 phim, riết chán không chơi với em nó nữa. rất tiết mình không có acc fshare ,chán wá
Kết nối đề xuất: