By Ebbaneza
#504301

Tinto Brass - Nhà đạo diễn gạo cội của nước Ý chuyên về phim 18+.

Sau 1 thời (gian) gian sưu tầm, hôm nay mình quyết định sẻ chia cùng tất cả người bộ sưu tập phim 18+ mà bắt đầu bằng cái tên lừng lẫy: Tinto Brass.

Các phim có sub Việt được ưu tiên post trước, các phim quá khủng khiếp xin phép không sẻ chia. Thanks các bạn ghé thăm và cho ý kiến.





CAPRICCIO.Tinto.Brass-PARENTE.DivX.DVDRip.1987


[IMG]


Nước Ý với bao công trình cổ kính - vậy liệu cuộc sống của họ có bảo thủ như các công trình ấy không?

Nước Ý với bao cảnh thiên nhiên hút hồn bất kỳ ai từng ghé mắt - Vậy các cô gái của họ có làm bạn phải chạnh lòng?

Nước Ý phát xít từng làm nhiều người đau khổ - vậy Tinto Brass có làm bạn phải khiếp sợ.

Mời bạn bắt đầu cuộc phiêu lưu.

Giới thiệu
Code: Đạo diễn: Tinto Brass
Diễn viên: Nicola Warren, Francesca Dellera and Andy J. Forest
Thể loại: Drama
Quốc gia: Ý
Năm: 1987
Dung lượng: 697 MiB
Độ dài: 1h 37mn
IMDB: Bấm vào đây để đăng nhập và xem link!

Media Info
Code: General
Complete name : E:Capriccio (1987)\CAPRICCIO.Tinto.Brass-PARENTE.DivX.DVDRip.1987\Tinto_Brass_Capriccio.avi
Format : AVI
Format/Info : Audio Video Interleave
File size : 697 MiB
Duration : 1h 37mn
Overall bit rate mode : Variable
Overall bit rate : 999 Kbps
Writing application : VirtualDubMod 1.5.10.2 (build 2540/release)
Writing library : VirtualDubMod build 2540/release

Video
ID : 0
Format : MPEG-4 Visual
Format profile : Advanced [email protected]
Format settings, BVOP : 3
Format settings, QPel : No
Format settings, GMC : No warppoints
Format settings, Matrix : Default (H.263)
Codec ID : XVID
Codec ID/Hint : XviD
Duration : 1h 37mn
Bit rate : 866 Kbps
Width : 640 pixels
Height : 336 pixels
Display aspect ratio : 1.905
Frame rate : 25.000 fps
Color space : YUV
Chroma subsampling : 4:2:0
Bit depth : 8 bits
Scan type : Progressive
Compression mode : Lossy
Bits/(Pixel*Frame) : 0.161
Stream size : 604 MiB (87%)
Writing library : XviD 1.1.0 (UTC 2005-11-22)

Audio
ID : 1
Format : MPEG Audio
Format phiên bản : phiên bản 1
Format profile : Layer 3
Mode : Joint stereo
Mode extension : MS Stereo
Codec ID : 55
Codec ID/Hint : MP3
Duration : 1h 37mn
Bit rate mode : Variable
Bit rate : 120 Kbps
Nominal bit rate : 128 Kbps
Channel(s) : 2 channels
Sampling rate : 48.0 KHz
Compression mode : Lossy
Stream size : 83.6 MiB (12%)
Alignment : Aligned on interleaves
Interleave, duration : 24 ms (0.60 video frame)
Interleave, preload duration : 153 ms
Writing library : LAME3.90.
Encoding settings : -m j -V 4 -q 2 -lowpass 17.6 --abr 128


Download
Bấm vào đây để đăng nhập và xem link!
By hongoc217
#504316 Così fan tutte DVDRip.XviD.AC3.Spidersoft(1992)

Mọi phụ nữ đều làm vậy






Phim thứ 2 mình xin giới thiệu với các bạn có 1 cái tên có lẻ tự thân nó vừa làm bạn vô cùng tò mò. Vậy sao bạn không tự mình khám nó, hay bạn muốn khám phá cùng người ấy!



Giới thiệu
Code: Đạo diễn: Tinto Brass
Diễn viên: Claudia Koll, Paolo Lanza and Franco Branciaroli
Thể loại: Drama
Quốc gia: Ý
Năm: 1992
Dung lượng: 1.46 GiB
Độ dài: 1h 32mn
IMDB: Bấm vào đây để đăng nhập và xem link!


Media Info
Code: General
Complete name : E:\Così fan tutte (1992)\Vse.Ledi.Delayut.Eto.1991.RUS.DVDRip.XviD.AC3.-Spidersoft.avi
Format : AVI
Format/Info : Audio Video Interleave
File size : 1.46 GiB
Duration : 1h 32mn
Overall bit rate : 2 255 Kbps
Writing application : VirtualDubMod 1.5.10.2 (build 2542/release)
Writing library : VirtualDubMod build 2542/release

Video
ID : 0
Format : MPEG-4 Visual
Format profile : Advanced [email protected]
Format settings, BVOP : 1
Format settings, QPel : No
Format settings, GMC : No warppoints
Format settings, Matrix : Custom
Codec ID : XVID
Codec ID/Hint : XviD
Duration : 1h 32mn
Bit rate : 1 989 Kbps
Width : 720 pixels
Height : 400 pixels
Display aspect ratio : 16:9
Frame rate : 25.000 fps
Color space : YUV
Chroma subsampling : 4:2:0
Bit depth : 8 bits
Scan type : Progressive
Compression mode : Lossy
Bits/(Pixel*Frame) : 0.276
Stream size : 1.28 GiB (88%)
Writing library : XviD 1.2.1 (UTC 2008-12-04)

Audio
ID : 1
Format : AC-3
Format/Info : Audio Coding 3
Mode extension : CM (complete main)
Format settings, Endianness : Big
Codec ID : 2000
Duration : 1h 32mn
Bit rate mode : Constant
Bit rate : 256 Kbps
Channel(s) : 2 channels
Channel positions : Front: L R
Sampling rate : 48.0 KHz
Bit depth : 16 bits
Compression mode : Lossy
Stream size : 169 MiB (11%)
Alignment : Split accross interleaves
Interleave, duration : 40 ms (1.00 video frame)
Interleave, preload duration : 500 ms


Downloa
Bấm vào đây để đăng nhập và xem link!
By tonluonganh
#504317 L' Uomo che guarda-Tinto Brass.Ita.DVDRip.Xvid.PARENTE.1994

Kẻ dòm ngó





Kẻ dòm ngó - 1 cái tên đầy khiêu khích - lẽ nào chúng ta lại cầm lòng...




Giới thiệu
Code: Đạo diễn: Tinto Brass
Diễn viên: Katarina Vasilissa, Francesco Casale and Cristina Garavaglia
Thể loại: Drama
Năm: 1994
Quốc gia: Ý
Dung lượng: 619 MiB
Độ dài: 1h 38mn
IMDB: Bấm vào đây để đăng nhập và xem link!

Media Info
Code: General
Complete name : G:\Torrent\L'uomo che guarda (1994)\L' Uomo che guarda-Tinto Brass.Ita.DVDRip.Xvid.PARENTE.1994\L' Uomo che guarda-Tinto Brass.1994.avi
Format : AVI
Format/Info : Audio Video Interleave
File size : 619 MiB
Duration : 1h 38mn
Overall bit rate : 876 Kbps
Writing library : VirtualDub build 13720/release

Video
ID : 0
Format : MPEG-4 Visual
Format settings, BVOP : Yes
Format settings, QPel : No
Format settings, GMC : No warppoints
Format settings, Matrix : Default (H.263)
Codec ID : DIVX
Codec ID/Info : Project Mayo
Codec ID/Hint : DivX 4
Duration : 1h 38mn
Bit rate : 775 Kbps
Width : 576 pixels
Height : 432 pixels
Display aspect ratio : 4:3
Frame rate : 25.000 fps
Color space : YUV
Chroma subsampling : 4:2:0
Bit depth : 8 bits
Scan type : Progressive
Compression mode : Lossy
Bits/(Pixel*Frame) : 0.125
Stream size : 548 MiB (88%)

Audio
ID : 1
Format : MPEG Audio
Format phiên bản : phiên bản 1
Format profile : Layer 3
Mode : Joint stereo
Mode extension : Intensity Stereo
Codec ID : 55
Codec ID/Hint : MP3
Duration : 1h 38mn
Bit rate mode : Constant
Bit rate : 96.0 Kbps
Channel(s) : 2 channels
Sampling rate : 48.0 KHz
Compression mode : Lossy
Stream size : 67.8 MiB (11%)
Alignment : Split accross interleaves
Interleave, duration : 9995 ms (249.88 video frames)
Interleave, preload duration : 9946 ms


Download
Bấm vào đây để đăng nhập và xem link!
By xoaixanh_cham_muoiot_girl87
#504335 Paprika_1991_DVDRip







Cơm nhà thường dễ ngán, đặc biệt với những người lấy nhau và cố sống với nhau vì chức, vì tiền ... còn tình yêu đối với họ nó lặn mất tăm từ lâu lắm rồi. Khi nhìn thấy bát phở thơm lừng đang bốc hơi ... Những kẻ đói lòng làm sao kềm chế nỗi!




Giới thiệu
Code: Đạo diễn: Tinto Brass
Diễn viên: Debora Caprioglio, Stéphane Ferrara and Martine Brochard
Thể loại: Drama
Quốc gia: Ý
Năm: 1991
Dung lượng: 905 MiB
Độ dài: 1h 51mn
IMDB: Bấm vào đây để đăng nhập và xem link!

Media Info
Code: General
Complete name : F:\Paprika (1991)\Paprika (1991) by Tinto Brass ENG softsub\Paprika.avi
Format : AVI
Format/Info : Audio Video Interleave
File size : 905 MiB
Duration : 1h 51mn
Overall bit rate : 1 136 Kbps
Writing application : MEncoder 1.0pre6-3.3
Writing library : MPlayer

Video
ID : 0
Format : MPEG-4 Visual
Format profile : [email protected]
Format settings, BVOP : No
Format settings, QPel : No
Format settings, GMC : No warppoints
Format settings, Matrix : Default (H.263)
Codec ID : XVID
Codec ID/Hint : XviD
Duration : 1h 51mn
Bit rate : 995 Kbps
Width : 600 pixels
Height : 360 pixels
Display aspect ratio : 16:9
Original display aspect ratio : 1.667
Frame rate : 25.000 fps
Color space : YUV
Chroma subsampling : 4:2:0
Bit depth : 8 bits
Scan type : Progressive
Compression mode : Lossy
Bits/(Pixel*Frame) : 0.184
Stream size : 792 MiB (88%)
Writing library : XviD 1.0.2 (UTC 2004-08-29)

Audio
ID : 1
Format : MPEG Audio
Format phiên bản : phiên bản 1
Format profile : Layer 3
Codec ID : 55
Codec ID/Hint : MP3
Duration : 1h 51mn
Bit rate mode : Constant
Bit rate : 128 Kbps
Channel(s) : 2 channels
Sampling rate : 48.0 KHz
Compression mode : Lossy
Stream size : 102 MiB (11%)
Alignment : Aligned on interleaves
Interleave, duration : 24 ms (0.60 video frame)
Interleave, preload duration : 504 ms


Download
Bấm vào đây để đăng nhập và xem link!
By congtungheo_qt
#504348 hichic...sao toàn Fshare không vậy pro...up sang link khác được không bạn?? Chà ... mình chỉ chơi được thằng này thôi bạn, nếu up lên Media Fire thì quá rùa + chia nhỏ xíu biết bao giờ mới xong, thêm nữa phải đổi tên file tùm lum lên nếu không nó khóa tài khoản liền hà. Nuôi thằng cu Fshare này cũng mệt rồi, nếu thêm 2,3 thằng nữa chắc chết mất - Con còn 1 đứa cơ mà - . Thôi bạn cố gắng kéo cày nha, thanks.
By baby_kieu
#504357 Senso '45-Balck.Angel.Tinto.Brass.ITA.DVDRip.XViD.PARENTE.20 02







Trong chiến tranh, sự xa cách luôn là nỗi ám ảnh của các bà vợ. Và những chàng sĩ quan trẻ điển trai nơi hậu phương luôn có sự hấp dẫn đặc biệt - khó thể cưỡng lại những lúc đói lòng.




Giới thiệu
Code: Đạo diễn: Tinto Brass
Diễn viên: Anna Galiena, Gabriel Garko and Franco Branciaroli
Thể loại: Drama
Quốc gia: Ý
Năm: 1992
Dung lượng: 986 MiB
Độ dài: 2h 2mn
IMDB: Bấm vào đây để đăng nhập và xem link!

Media Info
Code: General
Complete name : D:\1\Senso '45 (2002)\Senso '45-Balck.Angel.Tinto.Brass.ITA.DVDRip.XViD.PARENTE.2002\Senso '45-Balck.Angel.Tinto.Brass.ITA.DVDRip.XViD.PARENTE.2002.avi
Format : AVI
Format/Info : Audio Video Interleave
File size : 986 MiB
Duration : 2h 2mn
Overall bit rate : 1 129 Kbps

Video
ID : 0
Format : MPEG-4 Visual
Format settings, BVOP : Yes
Format settings, QPel : No
Format settings, GMC : No warppoints
Format settings, Matrix : Default (H.263)
Codec ID : DX50
Codec ID/Hint : DivX 5
Duration : 2h 2mn
Bit rate : 1 028 Kbps
Width : 704 pixels
Height : 448 pixels
Display aspect ratio : 1.571
Frame rate : 25.000 fps
Color space : YUV
Chroma subsampling : 4:2:0
Bit depth : 8 bits
Scan type : Progressive
Compression mode : Lossy
Bits/(Pixel*Frame) : 0.130
Stream size : 898 MiB (91%)
Title : Videostream
Writing library : DivX 5.0.2 (UTC 2002-05-16)

Audio
ID : 1
Format : MPEG Audio
Format phiên bản : phiên bản 1
Format profile : Layer 3
Mode : Joint stereo
Mode extension : Intensity Stereo
Codec ID : 55
Codec ID/Hint : MP3
Duration : 2h 2mn
Source duration : 2h 2mn
Bit rate mode : Constant
Bit rate : 96.0 Kbps
Channel(s) : 2 channels
Sampling rate : 48.0 KHz
Compression mode : Lossy
Stream size : 83.8 MiB (9%)
Alignment : Split accross interleaves
Interleave, duration : 1000 ms (25.00 video frames)
Title : Audiostream 1


Download
Bấm vào đây để đăng nhập và xem link!
Kết nối đề xuất: