Hình đại diện của thành viên
By motminh07
#494356




MEDIAINFO:
General
Unique ID : 206106960148295433556299211284227855686 (0x9B0EC1B27A9D7AFD8F90E56FA6009546)
Complete name : Piranha.3DD.2012.720p.HDRiP.AC3-5.1.x264-AXED.mkv
Format : Matroska
Format version : phiên bản 2
File size : 3.85 GiB
Duration : 1h 22mn
Overall bit rate : 6 666 Kbps
Encoded date : UTC 2012-06-02 20:50:24
Writing application : mkvmerge v4.0.0 ('The Stars were mine') built on Jun 6 2010 16:18:42
Writing library : libebml v1.0.0 + libmatroska v1.0.0

Video
ID : 1
Format : AVC
Format/Info : Advanced Video Codec
Format profile : [email protected]
Format settings, CABAC : Yes
Format settings, ReFrames : 4 frames
Codec ID : V_MPEG4/ISO/AVC
Duration : 1h 22mn
Bit rate : 6 149 Kbps
Width : 1 280 pixels
Height : 720 pixels
Display aspect ratio : 16:9
Frame rate : 23.976 fps
Color space : YUV
Chroma subsampling : 4:2:0
Bit depth : 8 bits
Scan type : Progressive
Bits/(Pixel*Frame) : 0.278
Stream size : 3.55 GiB (92%)
Writing library : x264 core 68 r1195bm 5d75a9b
Encoding settings : cabac=1 / ref=4 / deblock=1:0:0 / analyse=0x3:0x13 / me=umh / subme=7 / psy_rd=0.0:0.0 / mixed_ref=1 / me_range=16 / chroma_me=1 / trellis=1 / 8x8dct=1 / cqm=0 / deadzone=21,11 / chroma_qp_offset=0 / threads=1 / thread_queue=1 / nr=0 / decimate=1 / mbaff=0 / bframes=0 / keyint=250 / keyint_min=25 / scenecut=40 / rc=crf / crf=16.0 / qcomp=0.60 / qpmin=10 / qpmax=51 / qpstep=4 / ip_ratio=1.40 / aq=2:1.00
Default : Yes
Forced : No

Audio
ID : 2
Format : AC-3
Format/Info : Audio Coding 3
Mode extension : CM (complete main)
Codec ID : A_AC3
Duration : 1h 22mn
Bit rate mode : Constant
Bit rate : 384 Kbps
Channel(s) : 6 channels
Channel positions : Front: L C R, Side: L R, LFE
Sampling rate : 48.0 KHz
Bit depth : 16 bits
Compression mode : Lossy
Stream size : 227 MiB (6%)
Default : Yes
Forced : No


Nội dung phim là câu chuyện tiếp diễn của Piranha 3D ra mắt năm 2010, nằm trong loạt phim ăn khách về loài cá ăn thịt người hung tợn. Một năm sau vụ thảm sát tại hồ Victoria, đội quân hùng hậu của loài cá tiền sử Piranha tiếp tục "ngao du thiên hạ" qua các đường ống trong lòng thành phố với đích đến là các bể bơi trong công viên nước vừa khai trương "Big Wet". Để tiết kiệm chi phí, người quản lý công viên đã cho dẫn nước từ hồ vào mà không biết rằng họ đã tự mở con đường xuống địa ngục. Từng đàn cá ăn thịt hung dữ theo dòng nước qua các ống dẫn, thỏa sức tàn sát con mồi là các du khách đang vui chơi ở đây.




Download here

Bấm vào đây để đăng nhập và xem link!
Sub viêt
Bấm vào đây để đăng nhập và xem link!



Bấm vào đây để đăng nhập và xem link!
Bấm vào đây để đăng nhập và xem link!
Bấm vào đây để đăng nhập và xem link!
Bấm vào đây để đăng nhập và xem link!
Bấm vào đây để đăng nhập và xem link!
Bấm vào đây để đăng nhập và xem link!
Bấm vào đây để đăng nhập và xem link!
Bấm vào đây để đăng nhập và xem link!

Lưu ý khi sử dụng

- Gặp Link download hỏng, hãy đăng trả lời (yêu cầu link download mới), Các MOD sẽ cập nhật link sớm nhất
- Tìm kiếm trước khi đăng bài mới

Chủ đề liên quan:
Kết nối đề xuất: