By thienthantuyet_www91
#487479 The Avengers 2012 R6 WEBscr Xvid AC3-bRaVo
Siêu Anh Hùng Báo Thù



Bấm vào đây để đăng nhập và xem link!

TRAILER:


GIỚI THIỆU:
The Avengers là bộ phim viễn tưởng với nội dung phụ thuộc theo tác phẩm cùng tên của Marvel Comics. Câu chuyện xoay quanh các siêu anh hùng được tập hợp lại bởi Nick Fury, người đứng đầu S.H.I.E.L.D, để cùng nhau bảo vệ thế giới khỏi những kẻ thù nguy hiểm.
Code: Format : Matroska
File size : 1.85 GiB
Duration : 2h 13mn
Overall bit rate : 1 987 Kbps
Encoded date : UTC 2012-05-14 16:54:58
Writing application : mkvmerge v5.2.0 ('I can't explain') built on Dec 18 2011 18:12:03
Writing library : libebml v1.2.3 + libmatroska v1.3.0

Video
ID : 2
Format : xvid
Codec ID : xvid
Duration : 2h 13mn
Bit rate : 1 755 Kbps
Width : 720 pixels
Height : 404 pixels
Display aspect ratio : 16:9
Frame rate : 29.970 fps
Bits/(Pixel*Frame) : 0.201
Stream size : 1.64 GiB (88%)

Audio
ID : 1
Format : AC-3
Format/Info : Audio Coding 3
Mode extension : CM (complete main)
Muxing mode : Header stripping
Codec ID : A_AC3
Duration : 2h 13mn
Bit rate mode : Constant
Bit rate : 192 Kbps
Channel(s) : 2 channels
Channel positions : Front: L R
Sampling rate : 48.0 KHz
Bit depth : 16 bits
Compression mode : Lossy
Stream size : 183 MiB (10%)

Audio: English | AC-3
Subtitle: Chinese Hard coded













200MB/LINK - 5% Recovery record


Code: http://www.mediafire.com/?dhdchz63kaa3z PASS: ketnooi.com/forum

Phụ Đề:
Bấm vào đây để đăng nhập và xem link! CHÚC CÁC BẠN XEM PHIM VUI VẺ!

Lưu ý khi sử dụng

- Gặp Link download hỏng, hãy đăng trả lời (yêu cầu link download mới), Các MOD sẽ cập nhật link sớm nhất
- Tìm kiếm trước khi đăng bài mới

Chủ đề liên quan:
By anglelynguyen
By visaocuoitroi_2mye
#487536 khong k bác nào làm chuột bạch chưa Bác này chắc chẳng tin người bao giờ hay sao ấy, từ người post có thể có chút tin tưởng chứ

khonggiakhanh có sub không bác ? Chắc sớm có thôi bác, hàng hot mà
By conongnhobe_bmt3
#487560 angel_of_dead_91 Bác này chắc chẳng tin người bao giờ hay sao ấy, từ người post có thể có chút tin tưởng chứ



Chắc sớm có thôi bác, hàng hot mà e làm chuột bạch nhiều rồi mà bác.mạng yếu tải về không xem được hay làm sao thì chỉ muốn đập máy
By Glyn
#487561 khong k e làm chuột bạch nhiều rồi mà bác.mạng yếu tải về không xem được hay làm sao thì chỉ muốn đập máy Screenshot chính là cho biết chất lượng hình ảnh của bản film, info thì cho biết những thứ còn lại (thời lượng, dung lượng, khung hình, chất lượng âm thanh....
By nhocloveyou77
#487580 đợi mãi cuối cùng cũng có bản này đẹp hơn thanks chủ thớt nhé
Kết nối đề xuất: