By poroonline
#481059 The Avengers 2012 CAM READNFO XviD-HOPE

Biệt Đội Siêu Anh Hùng



Code: http://www.imdb.com/title/tt0848228/
General Information:
Code: General
Complete name : The.Avengers.2012.CAM.READNFO.XviD-HOPE.avi
Format : AVI
Format/Info : Audio Video Interleave
File size : 1.68 GiB
Duration : 2h 10mn
Overall bit rate : 1 839 Kbps
Writing library : VirtualDub build 31536/release

Video
ID : 0
Format : MPEG-4 Visual
Format profile : Advanced [email protected]
Format settings, BVOP : 2
Format settings, QPel : No
Format settings, GMC : No warppoints
Format settings, Matrix : Default (H.263)
Muxing mode : Packed bitstream
Codec ID : XVID
Codec ID/Hint : XviD
Duration : 2h 10mn
Bit rate : 1 699 Kbps
Width : 672 pixels
Height : 358 pixels
Display aspect ratio : 1.877
Frame rate : 29.970 fps
Color space : YUV
Chroma subsampling : 4:2:0
Bit depth : 8 bits
Scan type : Progressive
Compression mode : Lossy
Bits/(Pixel*Frame) : 0.236
Stream size : 1.55 GiB (92%)
Writing library : XviD 64

Audio
ID : 1
Format : MPEG Audio
Format phiên bản : phiên bản 1
Format profile : Layer 3
Mode : Joint stereo
Mode extension : MS Stereo
Codec ID : 55
Codec ID/Hint : MP3
Duration : 2h 10mn
Bit rate mode : Constant
Bit rate : 128 Kbps
Channel(s) : 2 channels
Sampling rate : 44.1 KHz
Compression mode : Lossy
Stream size : 120 MiB (7%)
Alignment : Split accross interleaves
Interleave, duration : 33 ms (1.00 video frame)
Interleave, preload duration : 500 ms
Writing library : LAME3.99r
Encoding settings : -m j -V 4 -q 2 -lowpass 17 -b 128 Đạo diễn: Joss Whedon

Kịch bản: Zak Penn (screenplay), Joss Whedon (screenplay)

Diễn viên: Robert Downey Jr., Chris Evans, Scarlett Johansson

Ngày khởi chiếu: 4/5/2012 (Hoa Kỳ)

Thể loại: Hành Động, Viễn Tưởng

Ngôn ngữ: Tiếng Anh

Hãng sản xuất: Marvel Enterprises, Marvel Studios

Nước sản xuất: Hoa Kỳ


Giới thiệu:The Avengers (Những Người Báo Thù) là một biệt đội gồm các siêu anh hùng của hãng truyện tranh Marvel. Mang biệt danh Earth's Mightiest Heroes (Những Siêu Nhân Hùng phát triển nhất Trên Trái Đất), những Avengers đầu tiên vừa khởi xướng biệt đội này gồm có Ant-Man (Người Kiến), Wasp (Ong Bắp Cày), Thor, Iron Man (Người Sắt), và The Hulk (Người lớn Xanh). Về sau có thêm sự xuất hiện của Captain America, một trong những nhân vật chủ chốt của biệt đội. Các Avengers sẽ chiến đấu với những kẻ thù mà không một siêu nhân đơn độc nào có thể kháng cự. Biệt đội có nhiều loại thành viên đặc biệt như con người, người đột biến (dị nhân), robot, chúa trời, người ngoài hành tinh, siêu nhân (bẩm sinh) và cả những kẻ xấu xa ngày trước.






200MB/link - 5% Recovery record




Code: http://www.fshare.vn/folder/TN84X6TABT
Code: Added in Shared folder File .rev dùng để khôi phục lại các part bị lỗi, hay link die.




các bạn không nhất thiết phải download file .rev, rõ hơn về file .rev có thể xem Bấm vào đây để đăng nhập và xem link!.



Code: hdmovie.vn
Code: bo_bo

Lưu ý khi sử dụng

- Gặp Link download hỏng, hãy đăng trả lời (yêu cầu link download mới), Các MOD sẽ cập nhật link sớm nhất
- Tìm kiếm trước khi đăng bài mới

Chủ đề liên quan:
By Dacian
By mirinda_1410
#481105 thứ nhất đây là bản CAM

thứ 2: lấy bên hdmovie thì ghi cái nguồn của người ta vào, như này thì................
Kết nối đề xuất: