By huongthuy_icb
#470617 Mirror Mirror 2012 TS - ADTRG 1 link


Size: 2 CD (1.37 GB)

Quality: 720×280, 1,795 kbps, AC3 192 kbps

Runtime: 98 mins

Genre: Adventure | Comedy | Drama

IMDB rating: 5.7/10

Directed by: Tarsem Singh

Starring: Lily Collins, Julia Roberts and Armie Hammer

Plot: One of the most beloved stories of all time is coming to life in the motion picture event for the whole family, Mirror Mirror. A fresh and funny retelling of the Snow White legend, Mirror Mirror features breakout star Lily Collins as Snow White, a princess in exile, and Julia Roberts as the evil Queen who ruthlessly rules her captured kingdom. Seven courageous rebel dwarfs join forces with Snow White as she fights to reclaim her birthright and windows her Prince in this magical comedy filled with jealousy, romance, and betrayal that will capture the hearts and imaginations of audiences the world over. The film also stars Armie Hammer as the Prince, and Nathan Lane as the hapless and bungling servant to the Queen.

Complete name : Mirror.Mirror.2012.TS.XViD.AC3-ADTRG.avi

Format : AVI

Format/Info : Audio Video Interleave

File size : 1.37 GiB

Duration : 1h 38mn

Overall bit rate : 1 992 Kbps

Writing library : VirtualDub build



ID : 0

Format : MPEG-4 Visual

Codec ID : XVID

Duration : 1h 38mn

Bit rate : 1 795 Kbps

Width : 720 pixels

Height : 280 pixels

Display aspect ratio : 2.571

Frame rate : 25.000 fps

Stream size : 1.23 GiB (90%)


ID : 1

Format : AC-3

Bit rate : 192 Kbps

Channel(s) : 2 channels

Channel positions : Front: L R

Sampling rate : 48.0 KHz

Stream size : 131 MiB (9%)

1 link download :

Code: Backup 1 link :

Code: Backup 300MB :


Lưu ý khi sử dụng

- Gặp Link download hỏng, hãy đăng trả lời (yêu cầu link download mới), Các MOD sẽ cập nhật link sớm nhất
- Tìm kiếm trước khi đăng bài mới

Chủ đề liên quan:
Kết nối đề xuất: