By rose_2005
#466242 The Vow (2012) R5 LiNE – INSPiRAL - 1 link



The Vow 2012 R5 LiNE XViD – INSPiRAL

Size: 1.2 GB

Video: XViD | 720×304 | 1 568 Kbps

Audio: English | MP3 | 128 Kbps

Runtime: 1 hour 39 minutes

Genre: Drama | Romance

IMDB rating: 6.5/10 (10,210 users)

Directed by: Michael Sucsy

Starring: Rachel McAdams, Channing Tatum and Sam Neill




Video

ID : 0

Format : MPEG-4 Visual

Format profile : Advanced [email protected]

Format settings, BVOP : 2

Format settings, QPel : No

Format settings, GMC : No warppoints

Format settings, Matrix : Default (MPEG)

Codec ID : XVID

Codec ID/Hint : XviD

Duration : 1h 39mn

Bit rate : 1 568 Kbps

Width : 720 pixels

Height : 304 pixels

Display aspect ratio : 2.35:1

Frame rate : 25.000 fps

Color space : YUV

Chroma subsampling : 4:2:0

Bit depth : 8 bits

Scan type : Progressive

Compression mode : Lossy

Bits/(Pixel*Frame) : 0.287

Stream size : 1.09 GiB (92%)

Writing library : XviD 1.2.1 (UTC 2008-12-04)


Audio

ID : 1

Format : MPEG Audio

Format phiên bản : phiên bản 1

Format profile : Layer 3

Mode : Joint stereo

Mode extension : MS Stereo

Codec ID : 55

Codec ID/Hint : MP3

Duration : 1h 39mn

Bit rate mode : Constant

Bit rate : 128 Kbps

Channel(s) : 2 channels

Sampling rate : 44.1 KHz

Compression mode : Lossy

Stream size : 91.1 MiB (7%)

Alignment : Split accross interleaves

Interleave, duration : 40 ms (1.00 video frame)

Interleave, preload duration : 500 ms


Plot: Paige and Leo are a happy newlywed couple whose lives are changed by a car accident that puts Paige in a coma. Waking up with severe memory loss, Paige has no memory of Leo, a confusing relationship with her parents, and an ex-fiance she may still have feelings for. Despite these complications, Leo endeavors to windows her heart again and rebuild their marriage.













1 link download :

Code: http://ul.to/hmd6hmde/I-TV.RF-BK.rar

Or

http://ul.to/0undfase/I-TV.RF.rar

http://rapidgator.net/file/1263508/I-TV.RF.rar.html Backup 300MB :

Code: http://ul.to/7tlnlmv5/I-TV.RF-BK300.part1.rar
http://ul.to/xc28tw8k/I-TV.RF-BK300.part2.rar
http://ul.to/sg0tnx10/I-TV.RF-BK300.part3.rar
http://ul.to/ofgftq4r/I-TV.RF-BK300.part4.rar
http://ul.to/jmo77ajs/I-TV.RF-BK300.part5.rar

http://rapidgator.net/file/1261317/I-TV.RF-BK300.part1.rar.html
http://rapidgator.net/file/1261344/I-TV.RF-BK300.part2.rar.html
http://rapidgator.net/file/1261345/I-TV.RF-BK300.part3.rar.html
http://rapidgator.net/file/1261543/I-TV.RF-BK300.part4.rar.html
http://rapidgator.net/file/1261710/I-TV.RF-BK300.part5.rar.html

Lưu ý khi sử dụng

- Gặp Link download hỏng, hãy đăng trả lời (yêu cầu link download mới), Các MOD sẽ cập nhật link sớm nhất
- Tìm kiếm trước khi đăng bài mới

Chủ đề liên quan:
By baby_pooh_htth
Kết nối đề xuất: