By xuongrong_emiuanh
#443094 The Lost Bladesman 2011
Quan Vân Trường

High Definition Rip by Mr.Ninhacc



Trailer


IMDb
Bấm vào đây để đăng nhập và xem link!

Media Info
Code: The.Lost.Bladesman.2011.m-720p.AC-3.x264 - Mr.Ninhacc.mkv
Format : Matroska
File size : 1.30 GiB
Duration : 1h 47mn
Overall bit rate : 1 725 Kbps
Encoded date : UTC 2011-06-13 00:58:05
Writing application : mkvmerge v4.5.0 ('Speed of Light') built on Feb 1 2011 02:10:32
Writing library : libebml v1.2.0 + libmatroska v1.1.0

Video
ID : 1
Format : AVC
Format/Info : Advanced Video Codec
Format profile : [email protected]
Format settings, CABAC : Yes
Format settings, ReFrames : 3 frames
Muxing mode : Header stripping
Codec ID : V_MPEG4/ISO/AVC
Duration : 1h 47mn
Bit rate : 1 500 Kbps
Width : 1 280 pixels
Height : 544 pixels
Display aspect ratio : 2.35:1
Original display aspect ratio : 2.35:1
Frame rate : 24.000 fps
Color space : YUV
Chroma subsampling : 4:2:0
Bit depth : 8 bits
Scan type : Progressive
Bits/(Pixel*Frame) : 0.090
Stream size : 1.11 GiB (85%)


Audio
ID : 2
Format : AC-3
Format/Info : Audio Coding 3
Mode extension : CM (complete main)
Muxing mode : Header stripping
Codec ID : A_AC3
Duration : 1h 47mn
Bit rate mode : Constant
Bit rate : 224 Kbps
Channel(s) : 6 channels
Channel positions : Front: L C R, Side: L R, LFE
Sampling rate : 48.0 KHz
Bit depth : 16 bits
Compression mode : Lossy
Stream size : 173 MiB (13%) Nội Dung
Quan Vân Trường là câu chuyện kể về những ngày tháng “thân tại doanh Tào lòng ở Hán” của Quan Vũ, về cuộc hành trình hộ tống Qi Lan (Tôn Lệ) – vợ của Lưu Bị (Phương Trung Tín) ra khỏi vòng kiềm tỏa của Tào Tháo (Khương Văn), giữ trọn đạo làm tui và đạo làm tiểu đệ. Trong cuộc hành trình ấy, Quan Vũ vừa phải vượt qua biết bao hiểm nguy, cạm bẫy. Khi thì là những lời ngon ngọt dụ dỗ, vàng bạc châu báu… mà Tào Tháo dùng để mua chuộc Quan Vũ, khi thì là những cuộc giao đấu quyết liệt để phá vòng vây quân Ngụy… Nhưng thử thách càng nhiều thì tấm lòng trung thành dũng cảm của Quan Vân Trường lại càng sáng ngời và đáng quý.














Bấm vào đây để đăng nhập và xem link!
Pass Join: Mr.Ninhacc

Sub Việt
Bấm vào đây để đăng nhập và xem link!

Nhấn THANK + Comment động viên nha các bạn ^^!

By familya6vuive
#443126 Thanks bạn , đợi bản đẹp phim này lâu lắm rồi

Cho hỏi là bản này bạn encode từ source nào vậy, không thấy trong info
By meokonk
#443149 tuananh301191 Thanks bạn , đợi bản đẹp phim này lâu lắm rồi

Cho hỏi là bản này bạn encode từ source nào vậy, không thấy trong info Source HD 1080 WEB-DL
By Covyll
#443204 Xem phim này song thật sự cảm giác đánh nhau thì hay nhưng ý nghĩa thì vừa mất đi rất nhiều. trong truyện của La Quán Trung thì Quan Vân Trường khi ra chiến trường và ở nhà thì đều không mặc giáp và đội mũ vải và trong phim thì lại mặc giáp, và râu là thứ theo mình không bao giờ cắt. Đạo diễn vừa thay đổi quá nhiều so vs truyện

Thân! 1 vài lời nhận xét sau khi xem phim này

Mong anh Ninh sớm ra các phim mới
By thanhtrung_dng
#443279 Phim nội dung dc nhưng mà diễn viên chính (Quan Vân Tr) hóa trang tệ quá, râu ria không ăn nhập gì cả, mặt thì trắng quá, chẳng phong trần tý nào
Kết nối đề xuất: