By doanthehiep85
#432040

Tower Heist 2011 DVDRIP XViD AC3-26K














Bấm vào đây để đăng nhập và xem link!



Giới thiệu:



Tower Heist là một bộ phim hài hành động về một nhóm người làm công đang tìm cách trả thù một kẻ lừa đảo tại Phố Wall. Sau khi những người làm chuyện tại tòa nhà cao cấp Central Park, đồng sở hữu tòa nhà phát hiện ra người tỷ phú sống ở tầng áp mái vừa đánh cắp tiền hưu trí của họ, họ vừa âm mưu cho một cuộc trả thù cuối cùng: một vụ cướp để giành lại những gì họ vừa bị lấy đi.


KHỞI CHIẾU tại Việt nam từ 4/11/2011



Info: Code: Tower Heist 2011 DVDRIP XViD AC3-26K

Imdb:
http://www.imdb.com/title/tt0471042/

Plot:
When a group of hard working guys find out they've fallen victim to a wealthy business man's Ponzi scheme, they conspire to rob his high-rise residence.

Sources:
THNXS M8!

Notes:
enjoy!

Greetz:
Xtreme Encode|FYA|ILLUMANTI|CM8|RX|VISION|HDSCENE|NIGHTMAREZ|xTriLL|DTRG|CRYS|REMIXHD|BIDA|RX|REFILL|INSPiRAL|SIC|ZOMBIESZ|HOPE|Anonymous|GooN
To all the people who have helped me you know who you are

Anything to offer email us @: [email protected]

Video
ID : 0
Format : MPEG-4 Visual
Format profile : Advanced [email protected]
Format settings, BVOP : 2
Format settings, QPel : No
Format settings, GMC : No warppoints
Format settings, Matrix : Default (H.263)
Codec ID : XVID
Codec ID/Hint : XviD
Duration : 1h 44mn
Bit rate : 1 697 Kbps
Width : 720 pixels
Height : 306 pixels
Display aspect ratio : 2.35:1
Frame rate : 23.976 fps
Color space : YUV
Chroma subsampling : 4:2:0
Bit depth : 8 bits
Scan type : Progressive
Compression mode : Lossy
Bits/(Pixel*Frame) : 0.321
Stream size : 1.24 GiB (79%)
Writing library : XviD 63

Audio
ID : 1
Format : AC-3
Format/Info : Audio Coding 3
Mode extension : CM (complete main)
Codec ID : 2000
Duration : 1h 44mn
Source duration : 1h 44mn
Bit rate mode : Constant
Bit rate : 448 Kbps
Channel(s) : 6 channels
Channel positions : Front: L C R, Side: L R, LFE
Sampling rate : 48.0 KHz
Bit depth : 16 bits
Compression mode : Lossy
Stream size : 335 MiB (21%)
Alignment : Aligned on interleaves
Interleave, duration : 42 ms (1.00 video frame)
Language : English
Screen:












Download:

Mediafire:
Bấm vào đây để đăng nhập và xem link! Torrent:
Bấm vào đây để đăng nhập và xem link! Sub Việt: cập nhập ở đây
Bấm vào đây để đăng nhập và xem link!
Bản 720p BluRay:

Lưu ý khi sử dụng

- Gặp Link download hỏng, hãy đăng trả lời (yêu cầu link download mới), Các MOD sẽ cập nhật link sớm nhất
- Tìm kiếm trước khi đăng bài mới

Chủ đề liên quan:
By hoadongnoi279
#432087 dag load Thanks cau!

---------- Bài thêm lúc 21:34 ---------- Bài trước là lúc 21:32 ----------

chua co sub kia chu thot oi!!! up gium cai sub nhanh voi nha !
Kết nối đề xuất: