By tinhtu_ghita
#431004



Trailer


Release Info
Code: Special.Investigating.Unit.2011.DVDRip.x264.AC3-theonlyh.mkv
Format : Matroska
Format phiên bản : phiên bản 2
File size : 1.47 GiB
Duration : 1h 50mn
Overall bit rate : 1 909 Kbps
Movie name : WWW.DOWNBOX.ME :)
Writing application : HandBrake 0.9.5
Writing library : libmkv 0.6.4.1

Video
ID : 1
Format : AVC
Format/Info : Advanced Video Codec
Format profile : [email protected]
Format settings, CABAC : Yes
Format settings, ReFrames : 4 frames
Codec ID : V_MPEG4/ISO/AVC
Duration : 1h 50mn
Bit rate : 1 455 Kbps
Width : 720 pixels
Height : 304 pixels
Display aspect ratio : 2.35:1
Frame rate mode : Variable
Frame rate : 23.976 fps
Color space : YUV
Chroma subsampling : 4:2:0
Bit depth : 8 bits
Scan type : Progressive
Bits/(Pixel*Frame) : 0.277
Stream size : 1.09 GiB (75%)
Writing library : x264 core 112
Encoding settings : cabac=1 / ref=2 / deblock=1:0:0 / analyse=0x1:0x111 / me=hex / subme=6 / psy=1 / psy_rd=1.00:0.00 / mixed_ref=0 / me_range=16 / chroma_me=1 / trellis=0 / 8x8dct=0 / cqm=0 / deadzone=21,11 / fast_pskip=1 / chroma_qp_offset=-2 / threads=3 / sliced_threads=0 / nr=0 / decimate=1 / interlaced=0 / constrained_intra=0 / bframes=2 / b_pyramid=2 / b_adapt=1 / b_bias=0 / direct=1 / weightb=0 / open_gop=0 / weightp=2 / keyint=240 / keyint_min=23 / scenecut=40 / intra_refresh=0 / rc_lookahead=40 / rc=abr / mbtree=1 / bitrate=1455 / ratetol=1.0 / qcomp=0.60 / qpmin=3 / qpmax=51 / qpstep=4 / ip_ratio=1.40 / aq=1:1.00
Language : English
Color primaries : BT.601-6 525, BT.1358 525, BT.1700 NTSC, SMPTE 170M
Transfer characteristics : BT.709-5, BT.1361
Matrix coefficients : BT.601-6 525, BT.1358 525, BT.1700 NTSC, SMPTE 170M

Audio
ID : 2
Format : AC-3
Format/Info : Audio Coding 3
Mode extension : CM (complete main)
Codec ID : A_AC3
Duration : 1h 50mn
Bit rate mode : Constant
Bit rate : 448 Kbps
Channel(s) : 6 channels
Channel positions : Front: L C R, Side: L R, LFE
Sampling rate : 48.0 KHz
Bit depth : 16 bits
Compression mode : Lossy
Stream size : 353 MiB (23%)
Language : English

Text #1
ID : 3
Format : VobSub
Codec ID : S_VOBSUB
Codec ID/Info : The same subtitle format used on DVDs
Language : English

Text #2
ID : 4
Format : VobSub
Codec ID : S_VOBSUB
Codec ID/Info : The same subtitle format used on DVDs
Language : Korean

Menu
00:00:00.000 : Chapter 1
00:10:17.700 : Chapter 2
00:24:02.474 : Chapter 3
00:40:25.139 : Chapter 4
00:59:05.842 : Chapter 5
01:11:04.877 : Chapter 6
01:31:01.939 : Chapter 7
01:44:46.830 : Chapter 8 Plots:

Một thanh tra hình sự với bản năng hoang dã, Sung-bm chưa bao giừo bó tay trước bất cứ vụ nào ông nhúng tay vào. Sau khi một trinh sát viên bị ám sát, một đội điều tra đặc biệt được thành lập. Nhưng khi vừa lần ra các manh mối thì chúng lại biến mất. Nghi ngờ xảy ra khiến không ai còn tin tưởng nhau nữa. Theo bản năng, biết rằng đây không pahỉ là vụ giết người đơn giản, Sung – bm và cảnh sát nước Ho –ryong - một cựu điều tra viên FBI càng đào sâu vào vụ án, họ càng tìm ra những điều đáng ngờ.
Screenshot











Mediafire
Bấm vào đây để đăng nhập và xem link!
Pass Unlock:[email protected]/forum 4share.vn
Bấm vào đây để đăng nhập và xem link! Subtitles
N/A

Lưu ý khi sử dụng

- Gặp Link download hỏng, hãy đăng trả lời (yêu cầu link download mới), Các MOD sẽ cập nhật link sớm nhất
- Tìm kiếm trước khi đăng bài mới

Chủ đề liên quan:
By Rennie
Kết nối đề xuất: