By mailinh_dailylife
#428861 Sherlock Holmes: Trò Chơi Của Bóng Tối (2011)






Bấm vào đây để đăng nhập và xem link!
Code: Format : MPEG-4
Format profile : Base Media / phiên bản 2
Codec ID : mp42
File size : 701 MiB
Duration : 1h 59mn
Overall bit rate mode : Variable
Overall bit rate : 820 Kbps
Encoded date : UTC 2011-12-25 10:27:34
Tagged date : UTC 2011-12-25 11:24:57
Writing application : HandBrake 0.9.5 2011010300

Video
ID : 1
Format : AVC
Format/Info : Advanced Video Codec
Format profile : [email protected]
Format settings, CABAC : Yes
Format settings, ReFrames : 4 frames
Codec ID : avc1
Codec ID/Info : Advanced Video Coding
Duration : 1h 59mn
Bit rate mode : Variable
Bit rate : 655 Kbps
Width : 680 pixels
Height : 282 pixels
Display aspect ratio : 2.40:1
Frame rate mode : Constant
Frame rate : 25.000 fps
Color space : YUV
Chroma subsampling : 4:2:0
Bit depth : 8 bits
Scan type : Progressive
Bits/(Pixel*Frame) : 0.137
Stream size : 561 MiB (80%)
Writing library : x264 core 112
Encoded date : UTC 2011-12-25 10:27:34
Tagged date : UTC 2011-12-25 11:24:57
Color primaries : BT.601-6 525, BT.1358 525, BT.1700 NTSC, SMPTE 170M
Transfer characteristics : BT.709-5, BT.1361
Matrix coefficients : BT.601-6 525, BT.1358 525, BT.1700 NTSC, SMPTE 170M

Audio
ID : 2
Format : AAC
Format/Info : Advanced Audio Codec
Format profile : LC
Codec ID : 40
Duration : 1h 59mn
Bit rate mode : Variable
Bit rate : 160 Kbps
Maximum bit rate : 204 Kbps
Channel(s) : 2 channels
Channel positions : Front: L R
Sampling rate : 48.0 KHz
Compression mode : Lossy
Stream size : 137 MiB (20%)
Encoded date : UTC 2011-12-25 10:27:34
Tagged date : UTC 2011-12-25 11:24:57 Một phần tiếp theo của Series phim Sherlock Holmes sau phiên bản năm 2009 đầy thú vị & thành công bất ngờ mà những ai xem xong tập đó còn tiếc nuối.




Phim của Ritchie khá tự do xây dựng các nhân vật do tác giả Arthur Conan Doyle sáng tạo, trong khi vẫn nhấn mạnh những yếu tố làm nên thành công của Sherlock Holmes: tính cách ngông và kỳ khôi của Holmes tăng gấp đôi nhờ nghệ thuật hóa trang mà đôi lúc khiến khán giả có cảm giác Sherlock đóng cả vai Arsène Lupin; sự ăn ý giữa Holmes và Watson trong chuyện suy xét bằng bộ não tinh nhạy; tài tiên đoán của chàng thám tử về những cảnh hành động sẽ diễn ra. Nhưng trong phần phim này, đôi khi anh không thể đúng vì gặp phải đối thủ quá mạnh- giáo sư xảo quyệt Moriarty.




Kẻ thù đáng gờm của Sherlock Holmes do nam diễn viên người Anh Jared Harris thủ diễn. Dưới vỏ ngoài- vị giáo sư đáng kính ở Oxford, Moriarty gieo rắc sự hỗn loạn ở châu Âu bằng quả bom, vụ ám sát hoàng tử Áo. Phim cận cảnh vào không khí châu Âu năm 1891, bất ổn chính trị đẩy các nước vào tình trạng căng thẳng.




- A Game of Shadows được phát triển từ các sự kiện của bản gốc, nơi Holmes chia tay với Watson và cố gắng để lần theo các dấu vết bất minh của Moriarty theo kế hoạch vừa định. Điều này, tất nhiên sẽ dẫn đến một reteam với Watson và các cuộc rượt đuổi liên lục địa.

Screenshot:









Bấm vào đây để đăng nhập và xem link!
Bấm vào đây để đăng nhập và xem link! Phụ Đề Việt Trong link folder MF và FS [email protected]/forum

Lưu ý khi sử dụng

- Gặp Link download hỏng, hãy đăng trả lời (yêu cầu link download mới), Các MOD sẽ cập nhật link sớm nhất
- Tìm kiếm trước khi đăng bài mới

Chủ đề liên quan:
By nguyenuyen08
#428881 Oh, ra là có phần 2 rùi àh =p~

Nhưng nhìn cái Sờ cờ rin sọt mà ... quá!

Thôi, chờ bản m-HD vậy
By tidus_3012
#428924 Green_Naruto Oh, ra là có phần 2 rùi àh =p~

Nhưng nhìn cái Sờ cờ rin sọt mà ... quá!

Thôi, chờ bản m-HD vậy Phim mới chiếu rạp mà bạn. Chỗ mình cuối tháng này mới chiếu rạp. Có phim xem + phụ đề việt lúc này là ngon rồi
By toilamotconroi_109
#428977 oạch vừa TS rồi, phim nước ngoài có khác. VN thì .... dở còn xa @@
Kết nối đề xuất: