#364472
Trailer:



General

Complete name : The.Evil.Cult.DVDRip.riskman X\The.Evil.Cult.DVDRip.riskman.avi

Format : AVI

Format/Info : Audio Video Interleave

File size : 703 MiB

Duration : 1h 43mn

Overall bit rate : 952 Kbps

Writing application : VirtualDubMod 1.5.10.2 (build 2542/release)

Writing library : VirtualDubMod build 2542/release


Video

ID : 0

Format : MPEG-4 Visual

Format profile : AdvancedSimple@L5

Format settings, BVOP : Yes

Format settings, QPel : No

Format settings, GMC : No warppoints

Format settings, Matrix : Default (H.263)

Muxing mode : Packed bitstream

Codec ID : XVID

Codec ID/Hint : XviD

Duration : 1h 43mn

Bit rate : 841 Kbps

Width : 720 pixels

Height : 400 pixels

Display aspect ratio : 16/9

Frame rate : 24.000 fps

Resolution : 24 bits

Colorimetry : 4:2:0

Scan type : Progressive

Bits/(Pixel*Frame) : 0.122

Stream size : 621 MiB (88%)

Writing library : XviD 1.1.2 (UTC 2006-11-01)


Audio

ID : 1

Format : MPEG Audio

Format phiên bản : phiên bản 1

Format profile : Layer 3

Codec ID : 55

Codec ID/Hint : MP3

Duration : 1h 43mn

Bit rate mode : Variable

Bit rate : 98.7 Kbps

Minimum bit rate : 96.0 Kbps

Channel(s) : 2 channels

Sampling rate : 44.1 KHz

Resolution : 16 bits

Stream size : 72.8 MiB (10%)

Alignment : Aligned on interleaves

Interleave, duration : 26 ms (0.63 video frame)

Interleave, preload duration : 520 ms

Writing library : LAME3.98b

Encoding settings : -m j -V 4 -q 0 -lowpass 17.5 --vbr-new -b 96

[Ỷ Thiên Đồ Long do Lý Liên Kiệt là nhân vật chính (Trương Vô Kỵ) chuyển thể từ bộ tiểu thuyết kiếm hiệp nổi tiếng cùng tên của nhà văn Kim Dung. Bộ phim xoay quanh quá trình trưởng thành, rèn luyện võ công, và trở thành vô địch thiên hạ của chàng trai Trương Vô Kỵ)

Phim có thuyết minh tiếng Việt

1LINK DOWN bản đẹp 700 MB:
Bấm vào đây để đăng nhập và xem link! Bộ phim với những màn võ thuật vô cùng đẹp mắt vừa làm cho Lý Liên Kiệt trở thành diễn viên nổi tiếng.

Lưu ý khi sử dụng

- Gặp Link download hỏng, hãy đăng trả lời (yêu cầu link download mới), Các MOD sẽ cập nhật link sớm nhất
- Tìm kiếm trước khi đăng bài mới

Chủ đề liên quan:
By Bran
#365083 Póc tem, thank bạn nhé!
Blog Tâm sự:
  • 40 tuổi liệu tôi còn có thể được làm mẹ | 06:02 ...
  • Cưới chồng một năm rồi mà tôi chưa thể làm chuyện ấy | 05:02 ...
  • Quen 10 ngày đã thấy yêu dù biết anh có vợ | 04:02 ...
  • Nhà chồng tồi nên tôi có quyền hận | 04:02 ...
  • Bạn trai hay xúc phạm rồi năn nỉ là tôi lại bỏ qua | 05:02 ...
  • Biết tôi sắp kết hôn mà người cũ chẳng chịu quên | 05:02 ...
By lonely_duck0407
#365088 hồi lúc đầu tiên... coi phim này xong mình còn tưởng nó có phần 2... đợi mãi chả thấy.... đến bây giờ tính ra đợi cũng 16 năm rồi.... vãi thật!
By Bentleah
#365090 hieudatinh hồi lúc đầu tiên... coi phim này xong mình còn tưởng nó có phần 2... đợi mãi chả thấy.... đến bây giờ tính ra đợi cũng 16 năm rồi.... vãi thật! ặc, đợi 16 năm, ráng đợi 16 năm nữa là có phần 2
By tuanvuanhus
#365091 lý liên kiệt được đánh giá đỉnh cao võ thuật của trung Hoa, hơn cả Thành Long nhiều, bộ phim đánh nhau tóe khói, phóng trưởng ầm ầm, sướng mắt lắm, lại lồ.ng tiếng nữa chứ, không xem phí
Ketnooi đề xuất: