Hình đại diện của thành viên
By newguy006
#1014920
London.Has.Fallen.2016.720p.BluRay.x264-DRONES
Luân Đôn thất thủ (2016)


( Gerard Butler, Aaron Eckhart, Morgan Freeman )
Ratings IMDB: 5.9/10 from 84,241




Plot:
Câu chuyện nói vê Tổng thống Mỹ Benjamin Asher và đặc vụ Mike Banning sẽ đến Anh và vô tình bị cuốn vào 1 nhiệm vụ hết sức khó khăn là giải cứu cho các nhà lãnh đạo cấp cao các nước khi Thủ tướng Anh đột ngột qua đời và lãnh đạo các nước đến Anh để dự lễ tang.


Info:
Video
ID : 1
Format : AVC
Format/Info : Advanced Video Codec
Format profile : [email protected]
Format settings, CABAC : Yes
Format settings, ReFrames : 5 frames
Codec ID : V_MPEG4/ISO/AVC
Duration : 1h 38mn
Bit rate : 4 830 Kbps
Width : 1 280 pixels
Height : 536 pixels
Display aspect ratio : 2.40:1
Frame rate mode : Constant
Frame rate : 23.976 fps
Color space : YUV
Chroma subsampling : 4:2:0
Bit depth : 8 bits
Scan type : Progressive
Bits/(Pixel*Frame) : 0.294
Stream size : 3.33 GiB (76%)
Writing library : x264 core 148 r2692 64f4e24
Encoding settings : cabac=1 / ref=5 / deblock=1:0:0 / analyse=0x3:0x133 / me=umh / subme=7 / psy=1 / psy_rd=1.00:0.00 / mixed_ref=1 / me_range=16 / chroma_me=1 / trellis=1 / 8x8dct=1 / cqm=0 / deadzone=21,11 / fast_pskip=0 / chroma_qp_offset=-2 / threads=12 / lookahead_threads=2 / sliced_threads=0 / nr=0 / decimate=1 / interlaced=0 / bluray_compat=0 / constrained_intra=0 / bframes=3 / b_pyramid=2 / b_adapt=1 / b_bias=0 / direct=1 / weightb=1 / open_gop=0 / weightp=2 / keyint=250 / keyint_min=23 / scenecut=40 / intra_refresh=0 / rc_lookahead=40 / rc=2pass / mbtree=1 / bitrate=4830 / ratetol=1.0 / qcomp=0.60 / qpmin=0 / qpmax=69 / qpstep=4 / cplxblur=20.0 / qblur=0.5 / ip_ratio=1.40 / aq=1:1.00
Language : English
Default : Yes
Forced : No

Audio
ID : 2
Format : DTS
Format/Info : Digital Theater Systems
Mode : 16
Format settings, Endianness : Big
Codec ID : A_DTS
Duration : 1h 38mn
Bit rate mode : Constant
Bit rate : 1 509 Kbps
Channel(s) : 6 channels
Channel positions : Front: L C R, Side: L R, LFE
Sampling rate : 48.0 KHz
Frame rate : 93.750 fps (512 spf)
Bit depth : 24 bits
Compression mode : Lossy
Stream size : 1.04 GiB (24%)
Language : English
Default : Yes
Forced : No

Menu
00:00:00.000 : en:00:00:00.000
00:05:23.281 : en:00:05:23.281
00:10:12.987 : en:00:10:12.987
00:15:53.202 : en:00:15:53.202
00:20:13.546 : en:00:20:13.546
00:23:41.462 : en:00:23:41.462
00:28:51.229 : en:00:28:51.229
00:33:30.383 : en:00:33:30.383
00:39:37.208 : en:00:39:37.208
00:45:05.286 : en:00:45:05.286
00:49:43.105 : en:00:49:43.105
00:53:26.954 : en:00:53:26.954
00:58:40.392 : en:00:58:40.392
01:02:42.467 : en:01:02:42.467
01:08:22.598 : en:01:08:22.598
01:12:51.075 : en:01:12:51.075
01:17:35.401 : en:01:17:35.401
01:20:58.270 : en:01:20:58.270
01:26:11.500 : en:01:26:11.500
01:31:42.247 : en:01:31:42.247


Subtitle:
Mã: Chọn tất cảhttps://subscene.com/subtitles/london-has-fallen


Screenshot:


Download:
4.37 GB
Mã: Chọn tất cảhttps://www.fshare.vn/file/NSTD5D6D5D46


Mã: Chọn tất cảhttp://4share.vn/f/7e4b4c494e48464c/London.Has.Fallen.2016.720p.BluRay.x264-DRONES.rar.file

Lưu ý khi sử dụng

- Gặp Link download hỏng, hãy đăng trả lời (yêu cầu link download mới), Các MOD sẽ cập nhật link sớm nhất
- Tìm kiếm trước khi đăng bài mới

Chủ đề liên quan:
Kết nối đề xuất: