Hình đại diện của thành viên
By newguy006
#1014884
London.Has.Fallen.2016.720p.BRRip.XviD.AC3-RARBG
Luân Đôn thất thủ (2016)


( Gerard Butler, Aaron Eckhart, Morgan Freeman )
Ratings IMDB: 5.9/10 from 84,241




Plot:
Câu chuyện nói vê Tổng thống Mỹ Benjamin Asher và đặc vụ Mike Banning sẽ đến Anh và vô tình bị cuốn vào 1 nhiệm vụ hết sức khó khăn là giải cứu cho các nhà lãnh đạo cấp cao các nước khi Thủ tướng Anh đột ngột qua đời và lãnh đạo các nước đến Anh để dự lễ tang.


Info:
Video
ID : 0
Format : MPEG-4 Visual
Format profile : [email protected]
Format settings, BVOP : No
Format settings, QPel : No
Format settings, GMC : No warppoints
Format settings, Matrix : Default (H.263)
Codec ID : XVID
Codec ID/Hint : XviD
Duration : 1h 38mn
Bit rate : 3 629 Kbps
Width : 1 280 pixels
Height : 536 pixels
Display aspect ratio : 2.40:1
Frame rate : 23.976 fps
Color space : YUV
Chroma subsampling : 4:2:0
Bit depth : 8 bits
Scan type : Progressive
Compression mode : Lossy
Bits/(Pixel*Frame) : 0.221
Stream size : 2.50 GiB (85%)
Writing library : Lavc56.60.100

Audio
ID : 1
Format : AC-3
Format/Info : Audio Coding 3
Mode extension : CM (complete main)
Format settings, Endianness : Big
Codec ID : 2000
Duration : 1h 38mn
Bit rate mode : Constant
Bit rate : 640 Kbps
Channel(s) : 6 channels
Channel positions : Front: L C R, Side: L R, LFE
Sampling rate : 48.0 KHz
Frame rate : 31.250 fps (1536 spf)
Compression mode : Lossy
Stream size : 452 MiB (15%)
Alignment : Aligned on interleaves
Interleave, duration : 42 ms (1.00 video frame)
Interleave, preload duration : 512 ms


Subtitle:
Mã: Chọn tất cảhttps://subscene.com/subtitles/london-has-fallen


Screenshots:





Download:
2.95 GB
Mã: Chọn tất cảhttps://www.fshare.vn/file/MN4EC9ZW9CP8


Mã: Chọn tất cảhttp://4share.vn/f/5f6a6d686e6d6d6d/London.Has.Fallen.2016.720p.BRRip.XviD.AC3-RARBG.avi.file
Hình đại diện của thành viên
By daigai
#1014886 Nhầm hay sao ấy nhỉ, phim này là nhà trắng thất thủ cơ mà
Kết nối đề xuất: