Hình đại diện của thành viên
By newguy006
#1014785
Olympus.Has.Fallen.2013.1080p.BluRay.x264-SPARKS
Nhà Trắng thất thủ (2013)


( Gerard Butler, Aaron Eckhart, Morgan Freeman )
Ratings IMDB: 6.5/10 from 207,534




Plot:
Chuyện bắt đầu khi tổng thống bị bắt cóc bởi một tên khủng bố được mệnh danh là "luôn đi trước mọi người một bước". Sau khi chặn toàn bộ lối ra vào và lấy Nhà Trắng làm căn cứ, hắn bắt đầu chiến dịch tàn phá các cứ điểm quan trọng khác. Bất ngờ thay, Mike Banning - một bảo vệ cấp cao của tổng thống vẫn còn may mắn sống sót sau vụ tấn công đó và thành công trong việc liên lạc với Bộ Quốc Phòng. Ngay lập tức, những đầu não chiến sự của nước Mĩ tập trung lại tại Lầu 5 Góc để hướng dẫn cũng như theo dõi chiến dịch giải cứu tổng thống gần như là không tưởng...

Info:
Video
ID : 1
Format : AVC
Format/Info : Advanced Video Codec
Format profile : [email protected]
Format settings, CABAC : Yes
Format settings, ReFrames : 5 frames
Codec ID : V_MPEG4/ISO/AVC
Duration : 1h 59mn
Bit rate : 8 033 Kbps
Width : 1 920 pixels
Height : 808 pixels
Display aspect ratio : 2.40:1
Frame rate mode : Constant
Frame rate : 24.000 fps
Color space : YUV
Chroma subsampling : 4:2:0
Bit depth : 8 bits
Scan type : Progressive
Bits/(Pixel*Frame) : 0.216
Stream size : 6.52 GiB (82%)
Title : X264
Writing library : x264 core 133 r2334 a3ac64b
Encoding settings : cabac=1 / ref=5 / deblock=1:0:0 / analyse=0x3:0x133 / me=umh / subme=7 / psy=1 / psy_rd=1.00:0.00 / mixed_ref=1 / me_range=16 / chroma_me=1 / trellis=1 / 8x8dct=1 / cqm=0 / deadzone=21,11 / fast_pskip=0 / chroma_qp_offset=-2 / threads=36 / lookahead_threads=6 / sliced_threads=0 / nr=0 / decimate=1 / interlaced=0 / bluray_compat=0 / constrained_intra=0 / bframes=3 / b_pyramid=2 / b_adapt=1 / b_bias=0 / direct=1 / weightb=1 / open_gop=0 / weightp=2 / keyint=250 / keyint_min=23 / scenecut=40 / intra_refresh=0 / rc_lookahead=40 / rc=2pass / mbtree=1 / bitrate=8033 / ratetol=1.0 / qcomp=0.60 / qpmin=0 / qpmax=69 / qpstep=4 / cplxblur=20.0 / qblur=0.5 / ip_ratio=1.40 / aq=1:1.00
Language : English
Default : Yes
Forced : No

Audio
ID : 2
Format : DTS
Format/Info : Digital Theater Systems
Mode : 16
Format settings, Endianness : Big
Codec ID : A_DTS
Duration : 1h 59mn
Bit rate mode : Constant
Bit rate : 1 509 Kbps
Channel(s) : 6 channels
Channel positions : Front: L C R, Side: L R, LFE
Sampling rate : 48.0 KHz
Bit depth : 24 bits
Compression mode : Lossy
Stream size : 1.26 GiB (16%)
Title : DTS
Language : English
Default : Yes
Forced : No

Text
ID : 3
Format : UTF-8
Codec ID : S_TEXT/UTF8
Codec ID/Info : UTF-8 Plain Text
Title : English
Language : English
Default : No
Forced : No

Menu
00:00:00.000 : en:00:00:00.000
00:09:19.542 : en:00:09:19.542
00:17:49.750 : en:00:17:49.750
00:27:52.417 : en:00:27:52.417
00:38:11.708 : en:00:38:11.708
00:46:51.833 : en:00:46:51.833
00:57:37.000 : en:00:57:37.000
01:07:31.708 : en:01:07:31.708
01:19:48.875 : en:01:19:48.875
01:28:46.208 : en:01:28:46.208
01:38:14.125 : en:01:38:14.125
01:50:14.625 : en:01:50:14.625


Subtitle:
Mã: Chọn tất cảhttps://subscene.com/subtitles/olympus-has-fallen


Screenshots:






Download:
7.93 GB
Mã: Chọn tất cảhttps://www.fshare.vn/file/QNQI2I4RARQ6


Mã: Chọn tất cảhttp://4share.vn/f/784d4a4f4c484848/Olympus.Has.Fallen.2013.1080p.BluRay.x264-SPARKS.mkv.file

Lưu ý khi sử dụng

- Gặp Link download hỏng, hãy đăng trả lời (yêu cầu link download mới), Các MOD sẽ cập nhật link sớm nhất
- Tìm kiếm trước khi đăng bài mới

Chủ đề liên quan:
Kết nối đề xuất: