Hình đại diện của thành viên
By newguy006
#1014778
Olympus.Has.Fallen.2013.BRRip.XviD-RARBG
Nhà Trắng thất thủ (2013)


( Gerard Butler, Aaron Eckhart, Morgan Freeman )
Ratings IMDB: 6.5/10 from 207,534




Plot:
Chuyện bắt đầu khi tổng thống bị bắt cóc bởi một tên khủng bố được mệnh danh là "luôn đi trước mọi người một bước". Sau khi chặn toàn bộ lối ra vào và lấy Nhà Trắng làm căn cứ, hắn bắt đầu chiến dịch tàn phá các cứ điểm quan trọng khác. Bất ngờ thay, Mike Banning - một bảo vệ cấp cao của tổng thống vẫn còn may mắn sống sót sau vụ tấn công đó và thành công trong việc liên lạc với Bộ Quốc Phòng. Ngay lập tức, những đầu não chiến sự của nước Mĩ tập trung lại tại Lầu 5 Góc để hướng dẫn cũng như theo dõi chiến dịch giải cứu tổng thống gần như là không tưởng...


Info:
Format : AVI
Format/Info : Audio Video Interleave
File size : 697 MiB
Duration : 1h 59mn
Overall bit rate : 817 Kbps

Video
ID : 0
Format : MPEG-4 Visual
Format profile : Advanced [email protected]
Format settings, BVOP : 2
Format settings, QPel : No
Format settings, GMC : No warppoints
Format settings, Matrix : Custom
Codec ID : XVID
Codec ID/Hint : XviD
Duration : 1h 59mn
Bit rate : 695 Kbps
Width : 752 pixels
Height : 320 pixels
Display aspect ratio : 2.35:1
Frame rate : 24.000 fps
Color space : YUV
Chroma subsampling : 4:2:0
Bit depth : 8 bits
Scan type : Progressive
Compression mode : Lossy
Bits/(Pixel*Frame) : 0.120
Stream size : 592 MiB (85%)
Writing library : XviD 64

Audio
ID : 1
Format : AC-3
Format/Info : Audio Coding 3
Mode extension : CM (complete main)
Format settings, Endianness : Big
Codec ID : 2000
Duration : 1h 59mn
Source duration : 1h 59mn
Bit rate mode : Constant
Bit rate : 112 Kbps
Channel(s) : 6 channels
Channel positions : Front: L C R, Side: L R, LFE
Sampling rate : 48.0 KHz
Bit depth : 16 bits
Compression mode : Lossy
Stream size : 95.4 MiB (14%)
Alignment : Aligned on interleaves
Interleave, duration : 32 ms (0.77 video frame)


Subtitle:
Mã: Chọn tất cảhttps://subscene.com/subtitles/olympus-has-fallen


Screenshots:





Download:
696 MB
Mã: Chọn tất cảhttps://www.fshare.vn/file/EBZUXVDXBFW2


Mã: Chọn tất cảhttp://4share.vn/f/6a5f585d5a5d5b5f/Olympus Has Fallen (2013) BRRip XviD-RARBG.avi.file

Lưu ý khi sử dụng

- Gặp Link download hỏng, hãy đăng trả lời (yêu cầu link download mới), Các MOD sẽ cập nhật link sớm nhất
- Tìm kiếm trước khi đăng bài mới

Chủ đề liên quan:
Kết nối đề xuất: