Hình đại diện của thành viên
By newguy006
#1014742
Gone.in.60.Seconds.2000.BRRip.XviD.MP3-RARBG
Biến mất trong 60 giây (2000)


( Nicolas Cage, Angelina Jolie, Giovanni Ribisi )
Ratings IMDB: 6.5/10 from 221,248




Plot:
Phim kể về một tay trộm xe nổi tiếng ở Los Angeles đã "gác kiếm" bị buộc phải "tái xuất giang hồ" để thực hiện một phi vụ có một không hai trong lịch sử trộm xe chỉ vì em trai cậu ta vì muốn xưng danh thiên hạ nên đã bắt chước anh của mình nhưng sự việc bất thành và bị xã hội đen LA đưa lên đoạn đầu đài.

Info:
Video
ID : 0
Format : MPEG-4 Visual
Format profile : [email protected]
Format settings, BVOP : No
Format settings, QPel : No
Format settings, GMC : No warppoints
Format settings, Matrix : Default (H.263)
Codec ID : XVID
Codec ID/Hint : XviD
Duration : 1 h 57 min
Bit rate : 1 598 kb/s
Width : 720 pixels
Height : 306 pixels
Display aspect ratio : 2.35:1
Frame rate : 23.976 FPS
Color space : YUV
Chroma subsampling : 4:2:0
Bit depth : 8 bits
Scan type : Progressive
Compression mode : Lossy
Bits/(Pixel*Frame) : 0.303
Stream size : 1.32 GiB (89%)
Title : Gone.in.60.Seconds.2000.BRRip.XviD.MP3-RARBG
Writing library : Lavc56.60.100

Audio
ID : 1
Format : MPEG Audio
Format phiên bản : phiên bản 1
Format profile : Layer 3
Mode : Joint stereo
Codec ID : 55
Codec ID/Hint : MP3
Duration : 1 h 57 min
Bit rate mode : Constant
Bit rate : 192 kb/s
Channel(s) : 2 channels
Sampling rate : 48.0 kHz
Compression mode : Lossy
Stream size : 162 MiB (11%)
Alignment : Aligned on interleaves
Interleave, duration : 24 ms (0.58 video frame)
Title : Gone.in.60.Seconds.2000.BRRip.XviD.MP3-RARBG


Subtitle:
Mã: Chọn tất cảhttps://subscene.com/subtitles/gone-in-sixty-seconds


Screenshots:






Download:
1.47 GB
Mã: Chọn tất cảhttps://www.fshare.vn/file/3DB5HR4ZEOWC


Mã: Chọn tất cảhttp://4share.vn/f/261314111610121f/Gone.in.60.Seconds.2000.BRRip.XviD.MP3-RARBG.rar.file

Lưu ý khi sử dụng

- Gặp Link download hỏng, hãy đăng trả lời (yêu cầu link download mới), Các MOD sẽ cập nhật link sớm nhất
- Tìm kiếm trước khi đăng bài mới

Chủ đề liên quan:
Kết nối đề xuất: