Hình đại diện của thành viên
By newguy006
#1014738
Gone.in.60.Seconds.2000.1080p.BluRay.x264.DTS-FGT
Biến mất trong 60 giây (2000)


( Nicolas Cage, Angelina Jolie, Giovanni Ribisi )
Ratings IMDB: 6.5/10 from 221,248




Plot:
Phim kể về một tay trộm xe nổi tiếng ở Los Angeles đã "gác kiếm" bị buộc phải "tái xuất giang hồ" để thực hiện một phi vụ có một không hai trong lịch sử trộm xe chỉ vì em trai cậu ta vì muốn xưng danh thiên hạ nên đã bắt chước anh của mình nhưng sự việc bất thành và bị xã hội đen LA đưa lên đoạn đầu đài.


Info:
Video
ID : 1
Format : AVC
Format/Info : Advanced Video Codec
Format profile : [email protected]
Format settings, CABAC : Yes
Format settings, ReFrames : 5 frames
Codec ID : V_MPEG4/ISO/AVC
Duration : 1h 57mn
Bit rate : 10.5 Mbps
Width : 1 920 pixels
Height : 816 pixels
Display aspect ratio : 2.35:1
Frame rate mode : Constant
Frame rate : 23.976 (24000/1001) fps
Color space : YUV
Chroma subsampling : 4:2:0
Bit depth : 8 bits
Scan type : Progressive
Bits/(Pixel*Frame) : 0.280
Stream size : 8.45 GiB (85%)
Writing library : x264 core 115 r2008 4c552d8
Encoding settings : cabac=1 / ref=5 / deblock=1:-3:-3 / analyse=0x3:0x133 / me=umh / subme=10 / psy=1 / psy_rd=1.15:0.10 / mixed_ref=1 / me_range=32 / chroma_me=1 / trellis=2 / 8x8dct=1 / cqm=0 / deadzone=21,11 / fast_pskip=0 / chroma_qp_offset=-3 / threads=12 / sliced_threads=0 / nr=0 / decimate=0 / interlaced=0 / bluray_compat=0 / constrained_intra=0 / bframes=7 / b_pyramid=2 / b_adapt=2 / b_bias=0 / direct=3 / weightb=1 / open_gop=0 / weightp=2 / keyint=250 / keyint_min=23 / scenecut=40 / intra_refresh=0 / rc_lookahead=60 / rc=2pass / mbtree=1 / bitrate=10500 / ratetol=1.0 / qcomp=0.75 / qpmin=0 / qpmax=69 / qpstep=4 / cplxblur=20.0 / qblur=0.5 / vbv_maxrate=50000 / vbv_bufsize=62500 / nal_hrd=none / ip_ratio=1.40 / aq=1:0.80
Language : English
Default : Yes
Forced : No

Audio
ID : 2
Format : DTS
Format/Info : Digital Theater Systems
Mode : 16
Format settings, Endianness : Big
Codec ID : A_DTS
Duration : 1h 57mn
Bit rate mode : Constant
Bit rate : 1 510 Kbps
Channel(s) : 6 channels
Channel positions : Front: L C R, Side: L R, LFE
Sampling rate : 48.0 KHz
Frame rate : 93.750 fps (512 spf)
Bit depth : 24 bits
Compression mode : Lossy
Delay relative to video : 72ms
Stream size : 1.24 GiB (13%)
Language : English
Default : Yes
Forced : No

Text
ID : 3
Format : UTF-8
Codec ID : S_TEXT/UTF8
Codec ID/Info : UTF-8 Plain Text
Language : English
Default : No
Forced : No

Menu
00:00:00.000 : en:Opening Credits/Family Album
00:03:24.413 : en:Boost Gone Bad
00:08:45.066 : en:Message to Memphis
00:11:54.422 : en:Emotional Rescue
00:16:54.180 : en:Brotherly Love
00:18:42.872 : enolice Hospitality
00:23:36.332 : en:Second Chances
00:26:49.691 : en:Old Friends
00:31:58.250 : en:Turf War
00:33:36.973 : en:Free Advice
00:36:23.431 : en:Tough Decision
00:38:42.320 : en:Trap Set
00:39:33.705 : en:Complicated List
00:42:11.362 : en:Catching a Thief
00:44:18.864 : en:The Scout
00:48:42.545 : en:Johnny B. Good
00:52:55.506 : en:Unexpected Visitor
00:58:43.854 : en:\"Hello Ladies\"
01:06:14.887 : enirty Girls
01:11:07.388 : en:Back to Work
01:13:43.169 : en:Cars or Sex?
01:17:29.979 : enecoy
01:19:38.524 : en:Gotcha!
01:21:23.587 : en:Business Risk
01:26:47.118 : en:Eleanor
01:32:52.233 : en:Lesson Learned
01:34:18.653 : en:Just a Scratch
01:38:27.818 : en:Big Jump
01:40:06.417 : en:Time\'s Up
01:44:12.705 : enainful Mistake
01:48:39.263 : en:BBQ
01:51:48.160 : en:End Credits


Subtitle:
Mã: Chọn tất cảhttps://subscene.com/subtitles/gone-in-sixty-seconds


Screenshots:






Download:
Mã: Chọn tất cảhttps://www.fshare.vn/file/KF42NTWU789C


Mã: Chọn tất cảhttp://4share.vn/f/655057525457525c/Gone.in.60.Seconds.2000.1080p.BluRay.x264.DTS-FGT.mkv.file

Lưu ý khi sử dụng

- Gặp Link download hỏng, hãy đăng trả lời (yêu cầu link download mới), Các MOD sẽ cập nhật link sớm nhất
- Tìm kiếm trước khi đăng bài mới

Chủ đề liên quan:
Kết nối đề xuất: