Hình đại diện của thành viên
By newguy006
#1014732
Gone.in.60.Seconds.2000.720p.BluRay.H264.AAC-RARBG
Biến mất trong 60 giây (2000)


( Nicolas Cage, Angelina Jolie, Giovanni Ribisi )
Ratings IMDB: 6.5/10 from 221,248




Plot:
Phim kể về một tay trộm xe nổi tiếng ở Los Angeles đã "gác kiếm" bị buộc phải "tái xuất giang hồ" để thực hiện một phi vụ có một không hai trong lịch sử trộm xe chỉ vì em trai cậu ta vì muốn xưng danh thiên hạ nên đã bắt chước anh của mình nhưng sự việc bất thành và bị xã hội đen LA đưa lên đoạn đầu đài.


Info:
Video
ID : 1
Format : AVC
Format/Info : Advanced Video Codec
Format profile : [email protected]
Format settings, CABAC : Yes
Format settings, ReFrames : 4 frames
Codec ID : avc1
Codec ID/Info : Advanced Video Coding
Duration : 1 h 57 min
Bit rate : 1 500 kb/s
Width : 1 280 pixels
Height : 544 pixels
Display aspect ratio : 2.35:1
Frame rate mode : Constant
Frame rate : 23.976 (23976/1000) FPS
Color space : YUV
Chroma subsampling : 4:2:0
Bit depth : 8 bits
Scan type : Progressive
Bits/(Pixel*Frame) : 0.090
Stream size : 1.24 GiB (87%)
Writing library : x264 core 148 r2638M 7599210
Encoding settings : cabac=1 / ref=4 / deblock=1:-1:-1 / analyse=0x3:0x113 / me=umh / subme=9 / psy=1 / psy_rd=1.00:0.15 / mixed_ref=1 / me_range=24 / chroma_me=1 / trellis=2 / 8x8dct=1 / cqm=0 / deadzone=21,11 / fast_pskip=1 / chroma_qp_offset=-3 / threads=32 / lookahead_threads=4 / sliced_threads=0 / nr=0 / decimate=1 / interlaced=0 / bluray_compat=0 / constrained_intra=0 / bframes=3 / b_pyramid=2 / b_adapt=2 / b_bias=0 / direct=3 / weightb=1 / open_gop=0 / weightp=2 / keyint=250 / keyint_min=25 / scenecut=40 / intra_refresh=0 / rc_lookahead=50 / rc=2pass / mbtree=1 / bitrate=1500 / ratetol=1.0 / qcomp=0.60 / qpmin=0 / qpmax=69 / qpstep=4 / cplxblur=20.0 / qblur=0.5 / vbv_maxrate=31250 / vbv_bufsize=31250 / nal_hrd=none / filler=0 / ip_ratio=1.40 / aq=3:1.00
Encoded date : UTC 2016-11-15 04:04:19
Tagged date : UTC 2016-11-15 04:04:19

Audio
ID : 2
Format : AAC
Format/Info : Advanced Audio Codec
Format profile : LC
Codec ID : 40
Duration : 1 h 57 min
Bit rate mode : Constant
Bit rate : 224 kb/s
Channel(s) : 2 channels
Channel(s)_Original : 6 channels
Channel positions : Front: L C R, Side: L R, LFE
Sampling rate : 48.0 kHz
Frame rate : 46.875 FPS (1024 spf)
Compression mode : Lossy
Stream size : 189 MiB (13%)
Language : English
Default : Yes
Alternate group : 1
Encoded date : UTC 2016-11-15 04:04:19
Tagged date : UTC 2016-11-15 04:04:19


Subtitle:
Mã: Chọn tất cảhttps://subscene.com/subtitles/gone-in-sixty-seconds


Screenshots:






Download:
1.42 GB

Mã: Chọn tất cảhttps://www.fshare.vn/file/DZMT2GVS4SGM


Mã: Chọn tất cảhttp://4share.vn/f/2a1f181d1a1c1e1d/Gone.in.60.Seconds.2000.720p.BluRay.H264.AAC-RARBG.rar.file

Lưu ý khi sử dụng

- Gặp Link download hỏng, hãy đăng trả lời (yêu cầu link download mới), Các MOD sẽ cập nhật link sớm nhất
- Tìm kiếm trước khi đăng bài mới

Chủ đề liên quan:
Kết nối đề xuất: