Hình đại diện của thành viên
By newguy006
#1013835
The.Secret.Life.of.Pets.2016.BDRip.x264-SPARKS
Đẳng Cấp Thú Cưng (2016)


( Louis C.K., Eric Stonestreet, Kevin Hart )
Ratings IMDB: 6.7/10 from 63,470




Plot:
Chuyện phim lấy bối cảnh một khu chưng cư giữa Manhattan náo nhiệt, cuộc sống Max - một con vật nuôi yêu thích bị đảo lộn khi chủ nhân của nó mang về nhà một chú chó cẩu thả tên Duke. Max và Duke phải bỏ qua các cuộc tranh cãi của họ sau khi họ phát hiện ra một chú thỏ trắng đáng yêu tên là Snowball đang xây dựng một đội quân của vật nuôi bị mất để trả thù ...


Info:
Video
ID : 1
Format : AVC
Format/Info : Advanced Video Codec
Format profile : [email protected]
Format settings, CABAC : Yes
Format settings, ReFrames : 10 frames
Codec ID : V_MPEG4/ISO/AVC
Duration : 1h 26mn
Bit rate : 1 129 Kbps
Width : 720 pixels
Height : 388 pixels
Display aspect ratio : 1.85:1
Frame rate mode : Constant
Frame rate : 23.976 fps
Color space : YUV
Chroma subsampling : 4:2:0
Bit depth : 8 bits
Scan type : Progressive
Bits/(Pixel*Frame) : 0.169
Stream size : 698 MiB (90%)
Title : X264
Writing library : x264 core 148 r2705 3f5ed56
Encoding settings : cabac=1 / ref=10 / deblock=1:2:1 / analyse=0x3:0x113 / me=umh / subme=8 / psy=1 / psy_rd=0.60:0.00 / mixed_ref=1 / me_range=16 / chroma_me=1 / trellis=1 / 8x8dct=1 / cqm=0 / deadzone=21,11 / fast_pskip=1 / chroma_qp_offset=-2 / threads=12 / lookahead_threads=3 / sliced_threads=0 / nr=0 / decimate=1 / interlaced=0 / bluray_compat=0 / constrained_intra=0 / bframes=5 / b_pyramid=2 / b_adapt=2 / b_bias=0 / direct=3 / weightb=1 / open_gop=0 / weightp=2 / keyint=250 / keyint_min=23 / scenecut=40 / intra_refresh=0 / rc_lookahead=50 / rc=crf / mbtree=1 / crf=19.0 / qcomp=0.60 / qpmin=0 / qpmax=69 / qpstep=4 / ip_ratio=1.40 / aq=1:0.60
Language : English
Default : Yes
Forced : No
Color range : Limited
Matrix coefficients : BT.709

Audio
ID : 2
Format : AAC
Format/Info : Advanced Audio Codec
Format profile : LC
Codec ID : A_AAC
Duration : 1h 26mn
Bit rate : 127 Kbps
Channel(s) : 2 channels
Channel positions : Front: L R
Sampling rate : 48.0 KHz
Frame rate : 46.875 fps (1024 spf)
Compression mode : Lossy
Stream size : 78.6 MiB (10%)
Language : English
Default : Yes
Forced : No

Menu
00:00:00.000 : en:00:00:00.000
00:05:05.847 : en:00:05:05.847
00:09:24.063 : en:00:09:24.063
00:13:18.840 : en:00:13:18.840
00:18:03.666 : en:00:18:03.666
00:22:14.458 : en:00:22:14.458
00:28:51.855 : en:00:28:51.855
00:32:54.848 : en:00:32:54.848
00:36:55.839 : en:00:36:55.839
00:42:27.295 : en:00:42:27.295
00:44:46.767 : en:00:44:46.767
00:50:21.227 : en:00:50:21.227
00:54:45.407 : en:00:54:45.407
00:59:33.987 : en:00:59:33.987
01:02:36.544 : en:01:02:36.544
01:07:12.362 : en:01:07:12.362
01:13:06.841 : en:01:13:06.841
01:16:04.602 : en:01:16:04.602
01:18:48.057 : en:01:18:48.057
01:19:58.836 : en:01:19:58.836


Subtitle:
Mã: Chọn tất cảhttps://subscene.com/subtitles/the-secret-life-of-pets


Screenshot:


Download:
778 MB

Mã: Chọn tất cảhttps://www.fshare.vn/file/E1RFJ6Z7OMRQ


Mã: Chọn tất cảhttp://4share.vn/f/4673747374717275/The.Secret.Life.of.Pets.2016.BDRip.x264-SPARKS.mkv.file

Lưu ý khi sử dụng

- Gặp Link download hỏng, hãy đăng trả lời (yêu cầu link download mới), Các MOD sẽ cập nhật link sớm nhất
- Tìm kiếm trước khi đăng bài mới

Chủ đề liên quan:
Kết nối đề xuất: