By hollystar_badboy_9999
#847628 [PL/UpToBox] Married Trucker Hina (2013) 1080p HDRip AAC
[Tình Cảm, Tâm Lý]






Bấm vào đây để đăng nhập và xem link!



Title: Married Trucker Hina (2013)
Director: H. Noto Beauty
Stars: Aso Nozomi, Yoshihiro Sato, Yu Shirakawa, Seiji Nakagawa Mitsu
Genres: Drama, Erotic
Country: Japan
Language: Japanese
Release Date: 3 April 2013 (Japanese)
Runtime : 79 min
Size: 1915131729 bytes (1.78 GiB), duration: 01:20:04, avg.bitrate: 3189 kb/s
Audio: aac, 48000 Hz, 2 channels, s16, 319 kb/s (eng)
Video: h264, yuv420p, 1920x1080, 2862 kb/s, 59.94 fps(r) (eng)

Format : MPEG-4
Format profile : Base Media / phiên bản 2
Codec ID : mp42
File size : 1.78 GiB
Duration : 1h 20mn
Overall bit rate mode : Variable
Overall bit rate : 3 189 Kbps
Encoded date : UTC 2014-04-23 11:02:01
Tagged date : UTC 2014-04-23 11:02:01

Video
ID : 2
Format : AVC
Format/Info : Advanced Video Codec
Format profile : [email protected]
Format settings, CABAC : Yes
Format settings, ReFrames : 2 frames
Format settings, GOP : M=2, N=15
Codec ID : avc1
Codec ID/Info : Advanced Video Coding
Duration : 1h 20mn
Bit rate mode : Variable
Bit rate : 2 863 Kbps
Maximum bit rate : 16.0 Mbps
Width : 1 920 pixels
Height : 1 080 pixels
Display aspect ratio : 16:9
Frame rate mode : Constant
Frame rate : 59.940 fps
Original frame rate : 29.970 fps
Color space : YUV
Chroma subsampling : 4:2:0
Bit depth : 8 bits
Scan type : Interlaced
Scan order : Top Field First
Bits/(Pixel*Frame) : 0.023
Stream size : 1.60 GiB (90%)
Language : English
Encoded date : UTC 2014-04-23 11:02:01
Tagged date : UTC 2014-04-23 11:02:01

Audio
ID : 1
Format : AAC
Format/Info : Advanced Audio Codec
Format profile : LC
Codec ID : 40
Duration : 1h 20mn
Bit rate mode : Constant
Bit rate : 320 Kbps
Channel(s) : 2 channels
Channel positions : Front: L R
Sampling rate : 48.0 KHz
Compression mode : Lossy
Delay relative to video : 33ms
Stream size : 183 MiB (10%)
Language : English
Encoded date : UTC 2014-04-23 11:02:01
Tagged date : UTC 2014-04-23 11:02:01




Người chồng nát rượu, bỏ bê công việc tài xế, khiến anh ta bị đuổi việc còn mang thêm nợ nần, khiến gia cảnh rơi vào cảnh túng bần, cô trở thành tài xế xe tải thay chồng kiếm tiền trả nợ, thật không dễ dàng khi phận nữ nhi tay yếu chân mềm, nàng phải trả giá cho công việc này khi buộc phải hiến thân cho gã giám đốc để được nhận xe. Người chồng ngày thêm bét nhè và đánh đập nàng vô cớ, buồn tủi nàng ngày đêm bám vô-lăng trải qua những cung đường, tránh xa người chồng tệ hại và nàng gặp được người cộng sự thật thà dễ mến...

























01 -

Waiting Uploading.......


DOWNLOAD

Bấm vào đây để đăng nhập và xem link!




Cập Nhật Tại Đây
Bấm vào đây để đăng nhập và xem link!

Lưu ý khi sử dụng

- Gặp Link download hỏng, hãy đăng trả lời (yêu cầu link download mới), Các MOD sẽ cập nhật link sớm nhất
- Tìm kiếm trước khi đăng bài mới

Chủ đề liên quan:
By keomut_abu
Kết nối đề xuất: