By vovaan
#686597



[SPOILER] Code: Complete name : Love.Scene.2013.720p.HDRip.H264-KTH.mp4
Format : MPEG-4
Format profile : Base Media / phiên bản 2
Codec ID : mp42
File size : 2.13 GiB
Duration : 1h 28mn
Overall bit rate mode : Variable
Overall bit rate : 3 444 Kbps
Encoded date : UTC 2013-09-27 06:51:51
Tagged date : UTC 2013-09-27 06:51:51

Video
ID : 201
Format : AVC
Format/Info : Advanced Video Codec
Format profile : High@L4.1
Format settings, CABAC : Yes
Format settings, ReFrames : 2 frames
Format settings, GOP : M=1, N=15
Codec ID : avc1
Codec ID/Info : Advanced Video Coding
Duration : 1h 28mn
Bit rate : 3 167 Kbps
Nominal bit rate : 3 000 Kbps
Width : 1 280 pixels
Height : 720 pixels
Display aspect ratio : 16:9
Frame rate mode : Constant
Frame rate : 29.970 fps
Color space : YUV
Chroma subsampling : 4:2:0
Bit depth : 8 bits
Scan type : Progressive
Bits/(Pixel*Frame) : 0.115
Stream size : 1.96 GiB (92%)
Writing library : x264 core 120
Encoding settings : cabac=1 / ref=2 / deblock=1:0:0 / analyse=0x3:0x113 / me=hex / subme=6 / psy=1 / psy_rd=1.0:0.0 / mixed_ref=1 / me_range=16 / chroma_me=1 / trellis=0 / 8x8dct=1 / cqm=0 / deadzone=21,11 / fast_pskip=0 / chroma_qp_offset=-2 / threads=8 / sliced_threads=0 / nr=0 / decimate=1 / mbaff=0 / constrained_intra=0 / bframes=2 / b_pyramid=0 / b_adapt=2 / b_bias=0 / direct=3 / wpredb=0 / wpredp=2 / keyint=15 / keyint_min=8 / scenecut=0 / intra_refresh=0 / rc_lookahead=15 / rc=abr / mbtree=1 / bitrate=3000 / ratetol=1.0 / qcomp=0.60 / qpmin=0 / qpmax=10 / qpstep=4 / ip_ratio=1.41 / aq=1:1.00
Tagged date : UTC 2013-09-27 06:54:54

Audio
ID : 101
Format : AAC
Format/Info : Advanced Audio Codec
Format profile : LC
Codec ID : 40
Duration : 1h 28mn
Bit rate mode : Variable
Bit rate : 128 Kbps
Channel(s) : 2 channels
Channel positions : Front: L R
Sampling rate : 48.0 KHz
Compression mode : Lossy
Stream size : 81.0 MiB (4%)
Tagged date : UTC 2013-09-27 06:54:54 [/SPOILER]











Code: http://www.fshare.vn/file/T6DVFW9CFT/

Code: subscene.com

Lưu ý khi sử dụng

- Gặp Link download hỏng, hãy đăng trả lời (yêu cầu link download mới), Các MOD sẽ cập nhật link sớm nhất
- Tìm kiếm trước khi đăng bài mới

Chủ đề liên quan:
By vovithiensu56
#686642 Không có sub viet ah, khi nao có sub thi kéo về coi thế nào. Thank chủ thớt trước đã
By love_matrix
#686645 Xem lướt không thích có sub xem nội dung thế nào, chứ cứ xem cảnh phang nhau thì cần gì đâu.
Kết nối đề xuất: