By Fachnan
#686594 The.Dyatlov.Pass.Incident.2013.720p.BluRay.x264.YI FY


Code: D:\Downloads\Devil's Pass (2013) - Ng?n Ðèo Qu? D?\The.Dyatlov.Pass.Incident.2013.720p.BluRay.x264.YIFY.mp4
General
Complete name : D:\Downloads\Devil's Pass (2013) - Ng?n Ðèo Qu? D?\The.Dyatlov.Pass.Incident.2013.720p.BluRay.x264.YIFY.mp4
Format : MPEG-4
Format profile : Base Media
Codec ID : isom
File size : 756 MiB
Duration : 1h 40mn
Overall bit rate mode : Variable
Overall bit rate : 1 054 Kbps
Encoded date : UTC 2013-08-29 00:37:25
Tagged date : UTC 2013-08-29 00:37:25
Video #1
ID : 1
Format : AVC
Format/Info : Advanced Video Codec
Format profile : High@L4.1
Format settings, CABAC : Yes
Format settings, ReFrames : 5 frames
Codec ID : avc1
Codec ID/Info : Advanced Video Coding
Duration : 1h 40mn
Bit rate : 956 Kbps
Maximum bit rate : 7 038 Kbps
Width : 1 280 pixels
Height : 688 pixels
Display aspect ratio : 1.85:1
Frame rate mode : Constant
Frame rate : 23.976 fps
Color space : YUV
Chroma subsampling : 4:2:0
Bit depth : 8 bits
Scan type : Progressive
Bits/(Pixel*Frame) : 0.045
Stream size : 685 MiB (91%)
Writing library : x264 core 135 r2 f0c1c53
Encoding settings : cabac=1 / ref=5 / deblock=1:-1:-1 / analyse=0x3:0x133 / me=umh / subme=9 / psy=1 / psy_rd=1.00:0.15 / mixed_ref=1 / me_range=24 / chroma_me=1 / trellis=2 / 8x8dct=1 / cqm=0 / deadzone=21,11 / fast_pskip=0 / chroma_qp_offset=-3 / threads=36 / lookahead_threads=3 / sliced_threads=0 / nr=0 / decimate=1 / interlaced=0 / bluray_compat=0 / constrained_intra=0 / bframes=3 / b_pyramid=2 / b_adapt=2 / b_bias=0 / direct=3 / weightb=1 / open_gop=0 / weightp=2 / keyint=250 / keyint_min=23 / scenecut=40 / intra_refresh=0 / rc_lookahead=60 / rc=2pass / mbtree=1 / bitrate=956 / ratetol=1.0 / qcomp=0.60 / qpmin=0 / qpmax=69 / qpstep=4 / cplxblur=20.0 / qblur=0.5 / vbv_maxrate=31250 / vbv_bufsize=31250 / nal_hrd=none / ip_ratio=1.40 / aq=1:1.00
Encoded date : UTC 2013-08-29 00:37:25
Tagged date : UTC 2013-08-29 00:37:35
Color primaries : BT.709
Matrix coefficients : BT.709
Audio #2
ID : 2
Format : AAC
Format/Info : Advanced Audio Codec
Format profile : LC
Codec ID : 40
Duration : 1h 40mn
Bit rate mode : Variable
Bit rate : 93.8 Kbps
Maximum bit rate : 105 Kbps
Channel(s) : 2 channels
Channel positions : Front: L R
Sampling rate : 48.0 KHz
Compression mode : Lossy
Stream size : 67.2 MiB (9%)
Language : English
Encoded date : UTC 2013-08-29 00:37:33
Tagged date : UTC 2013-08-29 00:37:35 NỘI DUNG


Bộ phim dựa theo 1 câu chuyện có thật mà 50 năm sau vẫn là 1 bí ẩn không có lời giải đáp. Năm 2012, năm sinh viên Mỹ quyết tâm lần theo dấu vết của đoàn thám hiểm người Nga đã khởi hành năm 1959 để tìm ra nguyên nhân của sự mất tích. Từ những giả thuyết được đưa ra: sự khắc nghiệt của thời tiết và thay đổi đột ngột của hướng gió; sự xuất hiện của những vật thể không xác định trên bầu trời có liên quan đến người ngoài hành tinh hay người tuyết. Một giả thiết khác, theo quan niệm của bộ tộc người Mansi, họ tin rằng nơi xảy ra tai nạn là vùng giao thoa giữa hai thế giới. Còn theo các nhà điều tra, có một quyền lực xa lạ nào đó đã đưa đoàn thám hiểm ra đi mãi mãi trong một cơn bão tuyết. Truyện phim đưa khán giả khám phá phong cảnh thiên nhiên hùng vĩ phủ đầy tuyết trắng của vùng núi Ural phương Bắc - nơi chứa đựng những bí ẩn của tự nhiên và của con người. Liệu ẩn số hơn nửa thế kỉ trước sẽ có lời giải đáp hay lịch sử sẽ lặp lại?

DOWNLOAD
Code: http://www.fshare.vn/folder/TZ6YQHANCT
Kết nối đề xuất: