By chuyentinh_hoatylip
#686481 Eragon.2006.720p.BrRip.x264.YIFY


Code: D:\Downloads\Eragon (2006) - C?u Bé R?ng\Eragon.2006.720p.BrRip.x264.YIFY.mp4
General
Complete name : D:\Downloads\Eragon (2006) - C?u Bé R?ng\Eragon.2006.720p.BrRip.x264.YIFY.mp4
Format : MPEG-4
Format profile : Base Media
Codec ID : isom
File size : 851 MiB
Duration : 1h 44mn
Overall bit rate mode : Variable
Overall bit rate : 1 143 Kbps
Encoded date : UTC 2012-07-06 13:36:31
Tagged date : UTC 2012-07-06 13:36:31
Video #1
ID : 1
Format : AVC
Format/Info : Advanced Video Codec
Format profile : [email protected]
Format settings, CABAC : Yes
Format settings, ReFrames : 8 frames
Codec ID : avc1
Codec ID/Info : Advanced Video Coding
Duration : 1h 44mn
Bit rate : 1 046 Kbps
Maximum bit rate : 8 223 Kbps
Width : 1 280 pixels
Height : 544 pixels
Display aspect ratio : 2.35:1
Frame rate mode : Constant
Frame rate : 23.976 fps
Color space : YUV
Chroma subsampling : 4:2:0
Bit depth : 8 bits
Scan type : Progressive
Bits/(Pixel*Frame) : 0.063
Stream size : 778 MiB (91%)
Writing library : x264 core 120 r2164 da19765
Encoding settings : cabac=1 / ref=8 / deblock=1:0:0 / analyse=0x3:0x133 / me=umh / subme=9 / psy=1 / psy_rd=1.00:0.00 / mixed_ref=1 / me_range=16 / chroma_me=1 / trellis=2 / 8x8dct=1 / cqm=0 / deadzone=21,11 / fast_pskip=1 / chroma_qp_offset=-2 / threads=12 / sliced_threads=0 / nr=0 / decimate=1 / interlaced=0 / bluray_compat=0 / constrained_intra=0 / bframes=6 / b_pyramid=2 / b_adapt=2 / b_bias=0 / direct=3 / weightb=1 / open_gop=0 / weightp=2 / keyint=240 / keyint_min=23 / scenecut=40 / intra_refresh=0 / rc_lookahead=60 / rc=2pass / mbtree=1 / bitrate=1046 / ratetol=1.0 / qcomp=0.60 / qpmin=10 / qpmax=51 / qpstep=4 / cplxblur=20.0 / qblur=0.5 / ip_ratio=1.40 / aq=1:1.00
Encoded date : UTC 2012-07-06 13:36:31
Tagged date : UTC 2012-07-06 13:40:50
Audio #2
ID : 2
Format : AAC
Format/Info : Advanced Audio Codec
Format profile : LC
Codec ID : 40
Duration : 1h 44mn
Bit rate mode : Variable
Bit rate : 93.9 Kbps
Maximum bit rate : 133 Kbps
Channel(s) : 2 channels
Channel positions : Front: L R
Sampling rate : 44.1 KHz
Compression mode : Lossy
Stream size : 69.9 MiB (8%)
Encoded date : UTC 2012-07-06 13:40:47
Tagged date : UTC 2012-07-06 13:40:50 NỘI DUNG


Bộ phim "Cậu Bé Rồng - Eragon 2006 (HD)": Một lần vô tình vào rừng, cậu bé Eragon đã tìm thấy một quả trứng lạ có màu xanh óng ánh. Nghĩ rằng đó là một vật quý có thể đổi lấy thịt cho gia đình cùng kiệt khó của mình nên Eragon rất vui mừng. Nhưng thật bất ngờ khi quả trứng lại nở ra một chú rồng và từ đây một thế giới bí ẩn đầy ma thuật và quyền phép đang chờ Eragon. Anh và chú rồng bạn đường của mình khám phá với vũ khí chỉ là một thanh kiếm cổ cùng những lời chỉ bảo từ các câu chuyện xưa.

DOWNLOAD
Code: http://www.fshare.vn/folder/TJV7RQG27T

Lưu ý khi sử dụng

- Gặp Link download hỏng, hãy đăng trả lời (yêu cầu link download mới), Các MOD sẽ cập nhật link sớm nhất
- Tìm kiếm trước khi đăng bài mới

Chủ đề liên quan:
By phu_cuong
Kết nối đề xuất: