Hình đại diện của thành viên
By Kairyu

Title: House With A Good View – Voyeuristic Desire
Hangul: 전망 좋은 하우스 – 관음적 욕망
Release Date: 2013/1½0
Director: Jin Dal-rae (진달래)
Genre: Melodrama, Romance
Runtime: 69 min.
Country: South Korea
Language: Korean
Subtitles: None ATM Cast
Kang Ji-seong (강지성)
Song Ah-im (송아임)
Sun Eve (선이브)
Sin Yeong-woong (신영웅)
Kim Ji-won-II (김지원)

The secret love of a man who becomes a woman, starts now.
So-hee has been seeing Tae-woo for a long time. One day, a new man named Eun-hyeok appears in front of her and proposes. So-hee has already promised to marry Tae-woo so she’s not easily moved by Eun-hyeok’s proposal. She refuses him by saying she loves women more than men and he becomes shocked. He goes under gender transplant to go back to her and becomes a woman named Eun-joo.
Eun-joo moves close to So-hee and Tae-woo’s honeymoon house. She watches their life day by day. She plots to take So-hee away from Tae-woo…

Format : Matroska
File size : 1.43 GiB
Duration : 1h 9mn
Overall bit rate : 2 965 Kbps
Encoded date : UTC 2010-02-22 21:41:31
Writing application : mkvmerge v5.9.0 ('On The Loose') built on Dec 9 2012 15:37:01
Writing library : libebml v1.3.0 + libmatroska v1.4.0
Video #1
ID : 1
Format : AVC
Format/Info : Advanced Video Codec
Format profile : [email protected]
Format settings, CABAC : Yes
Format settings, ReFrames : 4 frames
Muxing mode : Container [email protected]
Duration : 1h 9mn
Bit rate : 2 714 Kbps
Nominal bit rate : 2 850 Kbps
Width : 1 280 pixels
Height : 720 pixels
Display aspect ratio : 16:9
Frame rate : 23.976 fps
Resolution : 8 bits
Colorimetry : 4:2:0
Scan type : Progressive
Bits/(Pixel*Frame) : 0.123
Stream size : 1.31 GiB (91%)
Writing library : x264 core 116 r2074 2641b9e
Audio #2
ID : 2
Format : AC-3
Format/Info : Audio Coding 3
Codec ID : A_AC3
Duration : 1h 9mn
Bit rate mode : Constant
Bit rate : 192 Kbps
Channel(s) : 2 channels
Channel positions : L R
Sampling rate : 48.0 KHz
Stream size : 95.1 MiB (6%)

Bấm vào đây để đăng nhập và xem link!

Lưu ý khi sử dụng

- Gặp Link download hỏng, hãy đăng trả lời (yêu cầu link download mới), Các MOD sẽ cập nhật link sớm nhất
- Tìm kiếm trước khi đăng bài mới

Chủ đề liên quan:
Kết nối đề xuất: