Hình đại diện của thành viên
By Kairyu
#682806
Year: 2010

Duration: 01:27:47

Directed by: N/A

Actors: Aya Misaki

Language: Japanese

Country: Japan

Also known as: Injo Shuuyoujo Prison Harlem 2

Description

Second action erotic female prisoner in the prison scene was ruled by violence and the whip. Southern girl escaped out of the wall multiplied by a riot. But in vain would later be captured by a desperate fugitive. Was waiting for her whole body was detained torture kinky woman director.
General
Complete name : Injo Shuuyoujo Prison Harem 2.wmv
Format : Windows Media
File size : 917 MiB
Duration : 1h 27mn
Overall bit rate mode : Constant
Overall bit rate : 1 460 Kbps
Maximum Overall bit rate : 1 516 Kbps
Performer : DMM
Encoded date : UTC 2007-02-16 12:04:08.279
Copyright : NAKED FILM

Video
ID : 2
Format : WMV2
Codec ID : WMV2
Codec ID/Info : Windows Media Video 8
Description of the codec : Windows Media Video V8
Duration : 1h 27mn
Bit rate mode : Constant
Bit rate : 1 404 Kbps
Width : 640 pixels
Height : 480 pixels
Display aspect ratio : 4:3
Frame rate : 30.000 fps
Bit depth : 8 bits
Bits/(Pixel*Frame) : 0.152
Stream size : 882 MiB (96%)
Language : Japanese

Audio
ID : 1
Format : WMA
Format phiên bản : phiên bản 2
Codec ID : 161
Codec ID/Info : Windows Media Audio
Description of the codec : Windows Media Audio 9.1 - 96 kbps, 44 kHz, stereo (A/V) 1-pass CBR
Duration : 1h 27mn
Bit rate mode : Constant
Bit rate : 96.0 Kbps
Channel(s) : 2 channels
Sampling rate : 44.1 KHz
Bit depth : 16 bits
Stream size : 60.3 MiB (7%)
Language : Japanese





ryushare.com
Bấm vào đây để đăng nhập và xem link!

Lưu ý khi sử dụng

- Gặp Link download hỏng, hãy đăng trả lời (yêu cầu link download mới), Các MOD sẽ cập nhật link sớm nhất
- Tìm kiếm trước khi đăng bài mới

Chủ đề liên quan:
Kết nối đề xuất: