Hình đại diện của thành viên
By Kairyu
#682803

Title :Secret Chronicle: Crimson Goddess in Paradise
Director : Chûsei Sone
Stars : Yûko Katagiri, Meika Seri
AKA : 极乐红弁天
IMDB:http://www.imdb.com/title/tt0287554/
Year: 1973
Country: Japan
Genres: Comedy
Language: Japanese
Subtitles: No
Runtime : 01:09:56
Format : MKV
Director : Chûsei Sone
Cast : Yûko Katagiri, Meika Seri

Plot
This softcore Edo-period sex comedy from acclaimed Nikkatsu studio director Chusei Sone looks at two female friends who fall in love with a pair of samurai warriors and become accomplices to a smuggling operation. Amusing and occasionally even erotic, the pinku eiga film stars Yuko Katagiri (from Sone’s regrettable Furyo Shoujo: Noraneko No Seishun) as the naïve Okon, and Meika Seri as the trampy Oshina, who quickly introduces her virginal friend to a new outlook.

General
Complete name : Secret.Chronicle.Crimson.Goddess.in.Paradise.1973.mkv
Format : Matroska
Format phiên bản : phiên bản 4 / phiên bản 2
File size : 737 MiB
Duration : 1h 9mn
Overall bit rate : 1 474 Kbps
Encoded date : UTC 2010-02-22 21:41:31
Writing application : mkvmerge v5.9.0 ('On The Loose') built on Dec 9 2012 15:37:01
Writing library : libebml v1.3.0 + libmatroska v1.4.0

Video
ID : 1
Format : AVC
Format/Info : Advanced Video Codec
Format profile : [email protected]
Format settings, CABAC : Yes
Format settings, ReFrames : 4 frames
Muxing mode : Header stripping
Codec ID : V_MPEG4/ISO/AVC
Duration : 1h 9mn
Bit rate : 1 060 Kbps
Width : 704 pixels
Height : 304 pixels
Display aspect ratio : 2.35:1
Frame rate mode : Constant
Frame rate : 23.976 fps
Color space : YUV
Chroma subsampling : 4:2:0
Bit depth : 8 bits
Scan type : Progressive
Bits/(Pixel*Frame) : 0.207
Stream size : 530 MiB (72%)
Writing library : x264 core 104 r1713bm c276662
Default : Yes
Forced : No

Audio
ID : 2
Format : AC-3
Format/Info : Audio Coding 3
Mode extension : CM (complete main)
Format settings, Endianness : Big
Muxing mode : Header stripping
Codec ID : A_AC3
Duration : 1h 9mn
Bit rate mode : Constant
Bit rate : 384 Kbps
Channel(s) : 2 channels
Channel positions : Front: L R
Sampling rate : 48.0 KHz
Bit depth : 16 bits
Compression mode : Lossy
Stream size : 192 MiB (26%)
Default : Yes
Forced : No






ryushare.com

Bấm vào đây để đăng nhập và xem link!

Lưu ý khi sử dụng

- Gặp Link download hỏng, hãy đăng trả lời (yêu cầu link download mới), Các MOD sẽ cập nhật link sớm nhất
- Tìm kiếm trước khi đăng bài mới

Chủ đề liên quan:
Kết nối đề xuất: