By quangchanhai
#679205 The Face Reader 2013 720p HDRip H264 Mbaro - Thuật Xem Tướng
Code: Complete name : The.Face.Reader.2013.720p.HDRip.H264-Mbaro.mp4
Format : MPEG-4
Format profile : Base Media
Codec ID : isom
File size : 3.08 GiB
Duration : 2h 19mn
Overall bit rate mode : Variable
Overall bit rate : 3 149 Kbps


Video
ID : 1
Format : AVC
Format/Info : Advanced Video Codec
Format profile : [email protected]
Format settings, CABAC : Yes
Format settings, ReFrames : 1 frame
Codec ID : avc1
Codec ID/Info : Advanced Video Coding
Duration : 2h 19mn
Bit rate : 2 955 Kbps
Width : 1 280 pixels
Height : 720 pixels
Display aspect ratio : 16:9
Frame rate mode : Constant
Frame rate : 23.976 fps
Color space : YUV
Chroma subsampling : 4:2:0
Bit depth : 8 bits
Scan type : Progressive
Bits/(Pixel*Frame) : 0.134
Stream size : 2.89 GiB (94%)
Language : English


Audio
ID : 2
Format : AAC
Format/Info : Advanced Audio Codec
Format profile : LC
Codec ID : 40
Duration : 2h 19mn
Bit rate mode : Variable
Bit rate : 192 Kbps
Channel(s) : 2 channels
Channel positions : Front: L R
Sampling rate : 44.1 KHz
Compression mode : Lossy
Stream size : 190 MiB (6%)
Language : English

Một thầy tướng giỏi nhất của triều đại được Vua giao nhiệm vụ nhận diện những kẻ xấu để đội quân của Vua tiêu diệt cái ác từ trong trứng nước. Nhưng nhà Vua bị đột tử một cách bí ẩn, thế lực mới lôi kéo thầy tướng về phe của mình. Trong khi lúng túng với những xáo trộn của thời cuộc và định mệnh nhận biết số phận của chính mình, thầy tướng phát hiện ra rằng “dung mạo con người sẽ thay đổi qua từng thời kỳ”, điều này cũng đồng nghĩa với việc số phận con người cũng có thể thay đổi. Phim gây sự chú ý của khán giả bởi đề tài “thay đổi định mệnh”, nhưng tất cả những bí ẩn của thuật tướng số chỉ là cái cớ để dẫn dắt vào một câu chuyện tranh giành quyền lực như những bộ phim cổ trang khác. Khán giả sẽ được theo dõi câu chuyện qua sự hiểu biết và cái nhìn của nhân vật thầy tướng. Phim được đánh giá khá với dàn diễn viên, bối cảnh, góc máy quay đẹp và một cốt chuyện trên trung bình




1 Link 3.08 Gb
Bấm vào đây để đăng nhập và xem link! Sub
Bấm vào đây để đăng nhập và xem link!

Lưu ý khi sử dụng

- Gặp Link download hỏng, hãy đăng trả lời (yêu cầu link download mới), Các MOD sẽ cập nhật link sớm nhất
- Tìm kiếm trước khi đăng bài mới

Chủ đề liên quan:
Kết nối đề xuất: