By l3f_gemini_a
Code: Nội dung:
It turns out the sex - it is not only pleasant, but still fun! Program «Funny and naked» - the best proof. Removed thousands of sex movies, written books, composed many songs. But laugh at «that» can not everyone. The creators of the show focus on the jokes just for adults. Unbelievable situations with taste klubnichki waiting for you in each series. Imagine that you spokotsno go on the street. Suddenly the police officer stops you and requests to support the «very important evidence». All would be nothing but evidence in favor ... Inflatable woman. Good company! And how do you respond to the great unknown, which is directly in front of everyone to apply a one blouse, then another? .. What do you do if you came to the office for an interview zastukaete boss and secretary at the crime

Code: Info:
ID : 0
Format : MPEG-4 Visual
Format settings, BVOP : Yes
Format settings, QPel : No
Format settings, GMC : No warppoints
Format settings, Matrix : Default (H.263)
Muxing mode : Packed bitstream
Codec ID : DX50
Codec ID/Hint : DivX 5
Duration : 32s 40ms
Bit rate : 1 589 Kbps
Width : 736 pixels
Height : 544 pixels
Display aspect ratio : 4:3
Frame rate : 25.000 fps
Color space : YUV
Chroma subsampling : 4:2:0
Bit depth : 8 bits
Scan type : Progressive
Bits/(Pixel*Frame) : 0.159
Stream size : 6.07 MiB (96%)
Writing library : DivX 6.4.0 (UTC 2006-10-03)

ID : 1
Format : MPEG Audio
Format phiên bản : phiên bản 2
Format profile : Layer 3
Mode : Joint stereo
Mode extension : Intensity Stereo + MS Stereo
Codec ID : 55
Codec ID/Hint : MP3
Duration : 32s 112ms
Bit rate mode : Constant
Bit rate : 56.0 Kbps
Channel(s) : 2 channels
Sampling rate : 24.0 KHz
Stream size : 220 KiB (3%)
Alignment : Split accross interleaves
Interleave, duration : 40 ms (1.01 video frame)
Interleave, preload duration : 500 ms

Phần 1 (1-300)
Bấm vào đây để đăng nhập và xem link!

Phần 2 (301-600)
Bấm vào đây để đăng nhập và xem link!

Phần 3 (601-800)
Bấm vào đây để đăng nhập và xem link!

phần còn lại sẽ sớm up

Lưu ý khi sử dụng

- Gặp Link download hỏng, hãy đăng trả lời (yêu cầu link download mới), Các MOD sẽ cập nhật link sớm nhất
- Tìm kiếm trước khi đăng bài mới

Chủ đề liên quan:
By thu_antina
#673093 có sub k bác.chắc phim này k can sub wa
Blog Tâm sự:
Kết nối đề xuất: