By baby_sanhdieu99
#666149 [PL] Vacance (2013) 450p HDRip.XviD
Rửa Hận [Tội Phạm] [18+]






Code:

 Movie: Vacance
 Revised romanization: Bakangseu
 Hangul: 바캉스
 Director: Park Sun-Uk
 Release Date: October 1, 2013
 Runtime:92 min
 Language: Korean
 Country: South Korea
Cast
 You Sa-Ra - Soo-In
 Wi Ji-Woong - Jin-Wi

Complete name : Vacance.2013.450p.KOR.HDRip.XviD.avi
Format : AVI
Format/Info : Audio Video Interleave
Format profile : OpenDML
File size : 700MB
Duration : 1h 20mn
Overall bit rate : 2 312 Kbps
Writing application : PotEncoder

Video
ID : 0
Format : MPEG-4 Visual
Format profile : Advanced [email protected]
Format settings, BVOP : No
Format settings, QPel : No
Format settings, GMC : No warppoints
Format settings, Matrix : Default (MPEG)
Codec ID : XVID
Codec ID/Hint : XviD
Duration : 1h 32mn
Bit rate : 2 104 Kbps
Width : 800 pixels
Height : 450 pixels
Display aspect ratio : 16:9
Frame rate : 29.970 fps
Color space : YUV
Chroma subsampling : 4:2:0
Bit depth : 8 bits
Scan type : Progressive
Compression mode : Lossy
Bits/(Pixel*Frame) : 0.195
Stream size : 1.36 GiB (91%)
Writing library : XviD 1.2.1 (UTC 2008-12-04)

Audio
ID : 1
Format : MPEG Audio
Format phiên bản : phiên bản 1
Format profile : Layer 3
Mode : Joint stereo
Mode extension : MS Stereo
Codec ID : 55
Codec ID/Hint : MP3
Duration : 1h 32mn
Bit rate mode : Constant
Bit rate : 192 Kbps
Channel(s) : 2 channels
Sampling rate : 44.1 KHz
Compression mode : Lossy
Stream size : 127 MiB (8%)
Alignment : Aligned on interleaves
Interleave, duration : 26 ms (0.78 video frame)
Writing library : LAME3.98.2


Một nữ diễn viên nổi tiếng, con gái của một gia đình giàu có và một cô con dâu từng là những người bạn thân. Một người bí ẩn đe dọa sẽ tiết lộ quá khứ của họ, nếu không đáp ứng yêu cầu tiếp cận với ba gã đàn ông của kẻ giấu mặt.


Các kiều nữ nhanh chóng làm quen với ba gã đàn ông xa lạ, họ chiều chuộng hết mức những sở thích của chúng và đã đến lúc kẻ giấu mặt xuất hiện ....


PHIM KHÔNG DÀNH CHO VỊ THÀNH NIÊN - CẦN CÂN NHẮC TRƯỚC KHI XEM

















Link Download mới update

4share:
Bấm vào đây để đăng nhập và xem link!

Lưu ý khi sử dụng

- Gặp Link download hỏng, hãy đăng trả lời (yêu cầu link download mới), Các MOD sẽ cập nhật link sớm nhất
- Tìm kiếm trước khi đăng bài mới

Chủ đề liên quan:
By hainamluke
By meocon80cc
#666243 Putlocker tải max speed mà bạn sao mình down chậm lắm, dùng mạng vnpt, down link khác được 1,5MB/s
Kết nối đề xuất: