Hình đại diện của thành viên
By Kairyu
#663881
Title : Flirting (1988)
Country: Hong Kong
Language : Cantonese (English Subtitle)
Genre: Adult
Theatrical Run: 09/16/1988 - 09/21/1988
More: Bấm vào đây để đăng nhập và xem link!

Film's director : Lee Taai-Hang
Cast : Aoki Yuko, Alex Man Chi-Leung, Ng Siu-Gong, Maria Yuen Chi-Wai, Ou-Yang Sha-Fei, Wong Kwok-Wai, Kwok Siu, Yee Suk, Ngai Tim-Choi, Cheung Sek-Aau, Ho Wing-Cheung, Chan Hung







Story

A morality tale about carnal desire and betrayal, Ng stars as Sai, a rural villager who leaves his young wife behind and goes to Hong Kong to find work. He shares an apartment with best friend Choi (Alex Man), a rough womanizer who goes to Thailand and brings home new Thai wife Aoki (Aoki Yuko). As Sai is forced to hear Choi and Aoki having sex next door every night, his own desire escalates to the point where he starts to spy on the newly married couple. When Choi can't even keep down his womanizing ways in the presence of his wife, Aoki goes to Sai for consolation. However, the two are unable to hold their desires, beginning a steamy affair that may lead to fatal consequences.

General
Complete name : Flirting (1988).avi
Format : AVI
Format/Info : Audio Video Interleave
Format profile : OpenDML
File size : 1.13 GiB
Duration : 1h 31mn
Overall bit rate : 1 769 Kbps

Video #0
ID : 0
Format : xvid
Codec ID : xvid
Duration : 1h 31mn
Bit rate : 264 Kbps
Width : 720 pixels
Height : 480 pixels
Display aspect ratio : 3:2
Frame rate : 29.970 fps
Standard : NTSC
Bits/(Pixel*Frame) : 0.026
Stream size : 173 MiB (15%)
Audio #1
ID : 1
Format : MPEG Audio
Codec ID : 55
Codec ID/Hint : MP3
Duration : 1h 31mn
Bit rate : 64.0 Kbps
Channel(s) : 2 channels
Sampling rate : 48.0 KHz
Compression mode : Lossy
Stream size : 4.46 MiB (0%)
Alignment : Aligned on interleaves
Interleave, duration : 35 ms (1.06 video frame)

* Xin mời Anh Chị đăng ký 1 account ryushare Theo Link Sau Để Download Free Tốt Nhất: Bấm vào đây để đăng nhập và xem link!

+ Cách 1
Bấm vào đây để đăng nhập và xem link!
Bấm vào đây để đăng nhập và xem link!
+ Cách 2
Gia han Premium sau khi da Dang Ky account Ryushare the Links sau : Bấm vào đây để đăng nhập và xem link!
Bước 1: Dang Nhap User va pass
Bước 2: Coppy link sau vao WEB va go enter : Bấm vào đây để đăng nhập và xem link!
Sau do thanh toan binh thuong theo bang Premium .




Password: Kungfu

Download from ryushare.com
Bấm vào đây để đăng nhập và xem link!
Bấm vào đây để đăng nhập và xem link!

Download from uploaded.net
Bấm vào đây để đăng nhập và xem link!
Bấm vào đây để đăng nhập và xem link!

Lưu ý khi sử dụng

- Gặp Link download hỏng, hãy đăng trả lời (yêu cầu link download mới), Các MOD sẽ cập nhật link sớm nhất
- Tìm kiếm trước khi đăng bài mới

Chủ đề liên quan:
Kết nối đề xuất: