By nhoc_sean_kute
#662184 [ZiPPy]Giant Woman vs Big Octopus (2011) DVDRip

- [Hài Hước , Viển Tưởng] [18+]







................

Bấm vào đây để đăng nhập và xem link!


Code:
Movie: Giant Woman vs. Big Octopus
AKA: 海女テラス大神
Genre: Erotic
Director: Takao Nakano
Stars: Alice Ozawa, Nozomi Nishiyama, Mika Kurosawa, Miyuki Shoji, Satoru Nakamura Gen
Release Date: 2 Nov 2011
Country: Japan
Language: Japanese
Subtitles: None ATM

General
=======
Complete name : Giant Woman vs. Big Octopus.avi
Format : AVI
Format/Info : Audio Video Interleave
File size : 898 MiB
Duration : 1h 10mn
Overall bit rate : 1 782 Kbps
Writing application : VirtualDubMod 1.5.10.2 (build 2540/release)
Writing library : VirtualDubMod build 2540/release

Video
=====
ID : 0
Format : AVC
Format/Info : Advanced Video Codec
Format profile : [email protected]
Format settings, CABAC : Yes
Format settings, ReFrames : 4 frames
Codec ID : H264
Duration : 1h 10mn
Bit rate : 1 578 Kbps
Width : 720 pixels
Height : 400 pixels
Display aspect ratio : 16:9
Frame rate : 29.970 fps
Color space : YUV
Chroma subsampling : 4:2:0
Bit depth : 8 bits
Scan type : Progressive
Bits/(Pixel*Frame) : 0.183
Stream size : 795 MiB (89%)
Writing library : x264 core 104 r1713bm c276662
Encoding settings : cabac=1 / ref=2 / deblock=1:0:0 / analyse=0x3:0x113 / me=hex / subme=6 / psy=1 / psy_rd=1.00:0.00 / mixed_ref=1 / me_range=16 / chroma_me=1 / trellis=1 / 8x8dct=1 / cqm=0 / deadzone=21,11 / fast_pskip=1 / chroma_qp_offset=-2 / threads=6 / sliced_threads=0 / nr=0 / decimate=1 / interlaced=0 / constrained_intra=0 / bframes=3 / b_pyramid=2 / b_adapt=1 / b_bias=0 / direct=1 / weightb=1 / open_gop=0 / weightp=2 / keyint=250 / keyint_min=25 / scenecut=40 / intra_refresh=0 / rc_lookahead=30 / rc=crf / mbtree=1 / crf=18.9 / qcomp=0.60 / qpmin=10 / qpmax=51 / qpstep=4 / ip_ratio=1.40 / aq=1:1.00

Audio
=====
ID : 1
Format : AC-3
Format/Info : Audio Coding 3
Mode extension : CM (complete main)
Codec ID : 2000
Duration : 1h 10mn
Bit rate mode : Constant
Bit rate : 192 Kbps
Channel(s) : 2 channels
Channel positions : Front: L R
Sampling rate : 48.0 KHz
Bit depth : 16 bits
Compression mode : Lossy
Delay relative to video : 31ms
Stream size : 96.8 MiB (11%)
Alignment : Split accross interleaves
Interleave, duration : 33 ms (1.00 video frame)
Interleave, preload duration : 500 ms


Một cô gái trẻ đẹp cùng bạn đang dạo chơi trên bãi biển thì gặp một toán cướp, sợ hãi cô chạy trốn vào một bụi cỏ bổng dưng một luồng khílạ bốc lên làm cô gái trở nên cao lớn dị thường và cô đã cho bọn cướp một trận tơi bời...Ngoài khơi xa xuất hiện một con bạch tuột lớn tiến vào thành phố tàn phá thành phố Nhật Bản, cô gái có khả năng kỳ diệu ấy lại biến hình trở nên to lớn quyết đầu với con quái vật cứu nguy cho dân chúng

... Phim hài hước nhưng không dành cho vị thành niên


















01 - Bấm vào đây để đăng nhập và xem link!
02 - Bấm vào đây để đăng nhập và xem link!
03 - Bấm vào đây để đăng nhập và xem link!
04 - Bấm vào đây để đăng nhập và xem link!
05 - Bấm vào đây để đăng nhập và xem link!



Cập Nhật Tại Đây
Bấm vào đây để đăng nhập và xem link!
By miencattrang3388
Kết nối đề xuất: