By Farquarson
#658405 KỲ ÁN TRUYỆN TRANH









[SPOILER] Code: Complete name : Killer.Toon.2013.720p.HDRip.H264-Mbaro.mp4
Format : MPEG-4
Format profile : Base Media
Codec ID : isom
File size : 3.06 GiB
Duration : 1h 44mn
Overall bit rate mode : Variable
Overall bit rate : 4 201 Kbps
Writing application : Lavf52.61.0

Video
ID : 1
Format : AVC
Format/Info : Advanced Video Codec
Format profile : [email protected]
Format settings, CABAC : Yes
Format settings, ReFrames : 1 frame
Codec ID : avc1
Codec ID/Info : Advanced Video Coding
Duration : 1h 44mn
Bit rate : 3 994 Kbps
Width : 1 280 pixels
Height : 720 pixels
Display aspect ratio : 16:9
Frame rate mode : Constant
Frame rate : 23.976 fps
Color space : YUV
Chroma subsampling : 4:2:0
Bit depth : 8 bits
Scan type : Progressive
Bits/(Pixel*Frame) : 0.181
Stream size : 2.92 GiB (95%)
Writing library : x264 core 85 r1442 781d300
Encoding settings : cabac=1 / ref=1 / deblock=0:0:0 / analyse=0x1:0x111 / me=umh / subme=7 / psy=0 / mixed_ref=0 / me_range=16 / chroma_me=1 / trellis=1 / 8x8dct=0 / cqm=0 / deadzone=21,11 / fast_pskip=0 / chroma_qp_offset=0 / threads=18 / sliced_threads=0 / nr=0 / decimate=1 / mbaff=0 / constrained_intra=0 / bframes=0 / wpredp=0 / keyint=96 / keyint_min=49 / scenecut=0 / intra_refresh=0 / rc=2pass / mbtree=0 / bitrate=3994 / ratetol=0.1 / qcomp=0.60 / qpmin=10 / qpmax=51 / qpstep=4 / cplxblur=20.0 / qblur=0.5 / ip_ratio=1.41 / aq=1:1.00
Language : English

Audio
ID : 2
Format : AAC
Format/Info : Advanced Audio Codec
Format profile : LC
Codec ID : 40
Duration : 1h 44mn
Bit rate mode : Variable
Bit rate : 192 Kbps
Channel(s) : 2 channels
Channel positions : Front: L R
Sampling rate : 48.0 KHz
Compression mode : Lossy
Stream size : 141 MiB (5%)
Language : English [/SPOILER]

Killer toon là một bộ phim tâm lý, ly kỳ, hình sự tội phạm của Hàn Quốc. Bộ phim kể về việc thanh tra Lee Ki-Cheol phải điều tra các vụ án mạng dã man xảy ra liên tiếp, với cách thức thực hiện trùng khớp với nội dung của một bộ truyện tranh trên mạng được vẽ bởi hoạ sĩ Ji-Yoon. Đây là bộ phim sẽ khiến người xem phải hồi hợp, rùng mình từ khi mở đầu cho đến lúc những bí mật hãi hùng được phanh phui.









Code: http://www.fshare.vn/file/T0WG9BNHRT/

Code: http://subscene.com/

Lưu ý khi sử dụng

- Gặp Link download hỏng, hãy đăng trả lời (yêu cầu link download mới), Các MOD sẽ cập nhật link sớm nhất
- Tìm kiếm trước khi đăng bài mới

Chủ đề liên quan:
By thuy_nicky
Kết nối đề xuất: