By ghostwalk_on_sky_vn
#637125 Trance (2013) BRRip 720p 650MB
Mê Cung Ký Ức
HD/BRrip/DVDrip


Bấm vào đây để đăng nhập và xem link!
7.2/10 from 11,753 users
Code: Format : MPEG-4
File size : 651 MiB
Duration : 1h 41mn
Overall bit rate mode : Variable
Overall bit rate : 898 Kbps
Source : LIMITED.720p.BluRay.X264-AMIABLE

Video
Format : AVC
Bit rate : 816 Kbps
Width : 1 280 pixels
Height : 536 pixels
Display aspect ratio : 2.40:1
Frame rate mode : Constant
Frame rate : 23.976 fps
Stream size : 591 MiB (91%)
Writing library : x264 core 130 r2273

Audio
ID : 2
Format : AAC
Bit rate mode : Variable
Bit rate : 79.9 Kbps
Channel(s) : 2 channels
Channel positions : Front: L R
Sampling rate : 48.0 KHz
Stream size : 57.9 MiB (9%)
Language : English



Thể loại: Tội PHạm, Hình Sự

Diễn viên: Rosario Dawson, Vincent Cassel, James McAvoy

Đạo diễn: Danny Boyle

Kịch bản: Joe Ahearne, John Hodge

Năm sản xuất: 2013



Câu chuyện lần lượt được dẫn dắt bởi ba người khác nhau - Simon (James McAvoy), nhân viên một trung tâm chuyên đấu giá các tác phẩm nghệ thuật; Franck (Vincent Cassel), gã trai người Pháp cầm đầu một nhóm tội phạm và Elizabeth (Rosario Dawson), một chuyên gia thôi miên. Khán giả phải rất cẩn thận nếu không muốn bị “dắt mũi” bởi vì ba kẻ dẫn đường này đều không đáng tin cậy như nhau.




Franck muốn ăn cắp bức tranh nổi tiếng Witches in the Air của danh họa bậc thầy Goya. Gã “móc ngoặc” với Simon để có người hỗ trợ bên trong. Nào ngờ Simon cũng có những toan tính của riêng mình và cũng muốn “thuổng” riêng bức tranh. Mọi việc những tưởng diễn ra đúng như kế hoạch của cả hai, ngoại trừ một sự cố bất ngờ làm đảo lộn tất cả. Franck lấy được khung tranh trống còn bức tranh thì hoàn toàn mất tích. Kẻ duy nhất biết bức tranh ở đâu là Simon thì bị một đòn chí mạng vào đầu, bất tỉnh nhân sự vài ngày và khi tỉnh dậy thì quên sạch sẽ mọi chuyện.




Để cứu vãn tình thế, bọn tội phạm quyết định viện đến sự trợ giúp của chuyên gia thôi miên Elizabeth Lamb. Ngay từ lần xuất hiện đầu tiên, Elizabeth đã tạo cảm giác đáng ngờ như thể “cô ta biết một điều gì đó”. Câu chuyện được triển khai nhiều tầng lớp, vần vũ với những âm mưu, tính toán riêng của từng người. Ai mới là nạn nhân, ai là kẻ thủ ác, ai tốt, ai xấu, cho đến những phút cuối cùng bộ phim, khán giả cũng khó có thể phân biệt.









Bấm vào đây để đăng nhập và xem link!
Bấm vào đây để đăng nhập và xem link!
Bấm vào đây để đăng nhập và xem link!
Bấm vào đây để đăng nhập và xem link!
Bấm vào đây để đăng nhập và xem link!
Bấm vào đây để đăng nhập và xem link!



DOWNLOAD:



Bấm vào đây để đăng nhập và xem link!Bấm vào đây để đăng nhập và xem link!Bấm vào đây để đăng nhập và xem link!Bấm vào đây để đăng nhập và xem link!

Bấm vào đây để đăng nhập và xem link!
Bấm vào đây để đăng nhập và xem link!

Bấm vào đây để đăng nhập và xem link!

Bấm vào đây để đăng nhập và xem link!

Bấm vào đây để đăng nhập và xem link!

Bấm vào đây để đăng nhập và xem link!

Bấm vào đây để đăng nhập và xem link!


Bấm vào đây để đăng nhập và xem link!


Code: pipi911

=================

Lưu ý khi sử dụng

- Gặp Link download hỏng, hãy đăng trả lời (yêu cầu link download mới), Các MOD sẽ cập nhật link sớm nhất
- Tìm kiếm trước khi đăng bài mới

Chủ đề liên quan:
Kết nối đề xuất: