By love_monster_girl_9x
#621679 [Tâm lý | Tội phạm] Havoc 2005 FRENCH DVDRip XviD-JOKERTHEGAME - Lối sống trụy lạc









Ratings: 5,4/10 from 12.245 users
Bấm vào đây để đăng nhập và xem link!

Allison và Emily hai cô gái ở tỉnh lẻ lần đầu tiên lên thành phố học tập, choáng ngợp phố lầu, ánh đèn màu sự xa hoa của phố thị, đã lao vào ăn chơi thỏa thích, thời gian của các cô gái ở các quán bar, sàn nhảy, bù khú với những gã con trai lêu lõng nhiều hơn thời gian ở giảng đường đại học. Cả hai cô gái đều cặp bồ với bọn du côn mà không biết rằng họ đang rơi vào bẫy của chúng, cho đến khi cả hai cô sau một cuộc vui chơi với rượu chè,phê thuốc cần sa bị chúng cưỡng hiếp tập thể mới nhận ra được sự thực phủ phàng,


Có con đường nào để họ quay lại lại giảng đường hay đã quá muộn...

Code: General
Complete name : E:\vucovu\123321\havoc 2005\JEUX DE GANGS TRUEFRENCH DVDRIP XVID JOKERTHEGAME.avi
Format : AVI
Format/Info : Audio Video Interleave
File size : 708 MiB
Duration : 1h 21mn
Overall bit rate : 1 209 Kbps
Writing application : VirtualDubMod 1.5.10.2 Fr | www.trad-fr.com || (build 2540/release)
Writing library : VirtualDubMod build 2540/release

Video
ID : 0
Format : MPEG-4 Visual
Format settings, BVOP : 1
Format settings, QPel : No
Format settings, GMC : No warppoints
Format settings, Matrix : Default (H.263)
Muxing mode : Packed bitstream
Codec ID : DX50
Codec ID/Hint : DivX 5
Duration : 1h 21mn
Bit rate : 1 071 Kbps
Width : 720 pixels
Height : 390 pixels
Display aspect ratio : 16:9
Frame rate : 25.000 fps
Color space : YUV
Chroma subsampling : 4:2:0
Bit depth : 8 bits
Scan type : Progressive
Compression mode : Lossy
Bits/(Pixel*Frame) : 0.153
Stream size : 627 MiB (89%)
Writing library : DivX 6.8.5 (UTC 2009-08-20)

Audio
ID : 1
Format : MPEG Audio
Format phiên bản : phiên bản 1
Format profile : Layer 3
Mode : Joint stereo
Codec ID : 55
Codec ID/Hint : MP3
Duration : 1h 21mn
Bit rate mode : Constant
Bit rate : 128 Kbps
Channel(s) : 2 channels
Sampling rate : 44.1 KHz
Compression mode : Lossy
Stream size : 74.9 MiB (11%)
Alignment : Split accross interleaves
Interleave, duration : 40 ms (1.00 video frame)
Interleave, preload duration : 500 ms







1 Link 700 MB



Code: Bấm vào đây để đăng nhập và xem link!


Code: Bấm vào đây để đăng nhập và xem link!


Code: Bấm vào đây để đăng nhập và xem link!

Havoc 2005 720p - 2.7 GB

Code:


Tất tần tật về Emmanuelle
Bấm vào đây để đăng nhập và xem link!

Lưu ý khi sử dụng

- Gặp Link download hỏng, hãy đăng trả lời (yêu cầu link download mới), Các MOD sẽ cập nhật link sớm nhất
- Tìm kiếm trước khi đăng bài mới

Chủ đề liên quan:
By tinhban_tinhyeu_tinhnaydanhchoem
Kết nối đề xuất: