By chuyentinhbienxanh_dt2412
#610579 The Godfather (1972) BRrip 720p x264 1.3GB
Bố Già Vietsub HD/BRrip/DVDrip





Bấm vào đây để đăng nhập và xem link!
9.2/10 from 683,944 users
Code: The.Godfather.Part.I.1972.720p.BRRip.x264.ogg.mkv-anoXmous

Format : Matroska
Format phiên bản : phiên bản 2
File size : 1.36 GiB
Duration : 2h 57mn
Overall bit rate mode : Variable
Overall bit rate : 1 101 Kbps
Writing application : mkvmerge v4.9.1 ('Ich will') built on Jul 11 2011 23:53:15
Writing library : libebml v1.2.1 + libmatroska v1.1.1

Video
ID : 1
Format : AVC
Format/Info : Advanced Video Codec
Format profile : [email protected]
Format settings, CABAC : Yes
Format settings, ReFrames : 4 frames
Codec ID : V_MPEG4/ISO/AVC
Duration : 2h 57mn
Bit rate : 1 042 Kbps
Width : 1 280 pixels
Height : 720 pixels
Display aspect ratio : 16:9
Frame rate : 23.976 fps
Color space : YUV
Chroma subsampling : 4:2:0
Bit depth : 8 bits
Scan type : Progressive
Bits/(Pixel*Frame) : 0.047
Stream size : 1.26 GiB (92%)
Writing library : x264 core 116 r2074 2641b9e


Audio
ID : 2
Format : Vorbis
Format settings, Floor : 1
Codec ID : A_VORBIS
Duration : 2h 57mn
Bit rate mode : Variable
Bit rate : 64.0 Kbps
Channel(s) : 2 channels
Sampling rate : 48.0 KHz
Compression mode : Lossy
Stream size : 81.1 MiB (6%)
Writing library : aoTuV 20110424 (UTC 2011-04-24)
Language : English




Đạo diễn: Francis Ford Coppola

Diễn viên: Marlon Brando, Al Pacino, James Caan

Thể loại: Hành Động

Quốc gia: Mỹ - Châu Âu

Nhà sản xuất: Paramount Pictures, Alfran Productions

Thời lượng: 175 phút

Năm sản xuất: 1972


Bộ phim được coi là một trong những phim hay nhất của lịch sử điện ảnh, nó luôn xếp ở các vị trí dẫn đầu trong các bảng xếp hạng phim hay uy tín.


Phim bắt đầu bằng cảnh đám cưới của Connie Corleone, con gái duy nhất của ông trùm Vito Corleone với Carlo Rizzi vào cuối mùa hè năm 1945 ở Long Island, New York. Vì phong tục "không người Sicilia nào được từ chối những đề nghị vào ngày cưới của con gái họ", Vito Corleone, thường được bạn bè và người cộng tác gọi là "Bố già", cùng với người cố vấn Tom Hagen phải ngồi nghe những thỉnh cầu từ bạn bè và đối tác làm ăn. Cùng lúc đó, con trai út của nhà Corleone, Michael, người vừa trở về sau chiến tranh với tư cách một anh hùng, kể cho bạn gái của anh là Kay Adams những giai thoại về cuộc đời tội ác của cha mình và cam đoan với cô rằng anh không giống với gia đình mình.



Bấm vào đây để đăng nhập và xem link!
Bấm vào đây để đăng nhập và xem link!
Bấm vào đây để đăng nhập và xem link!
Bấm vào đây để đăng nhập và xem link!







DOWNLOAD:



Bấm vào đây để đăng nhập và xem link!
Bấm vào đây để đăng nhập và xem link!

Bấm vào đây để đăng nhập và xem link!

Bấm vào đây để đăng nhập và xem link!

Bấm vào đây để đăng nhập và xem link!

Bấm vào đây để đăng nhập và xem link!


Bấm vào đây để đăng nhập và xem link!


Code: pipi911

=================

Lưu ý khi sử dụng

- Gặp Link download hỏng, hãy đăng trả lời (yêu cầu link download mới), Các MOD sẽ cập nhật link sớm nhất
- Tìm kiếm trước khi đăng bài mới

Chủ đề liên quan:
Kết nối đề xuất: