By chjp01
#608692 [Hài | Tình cảm] La Dolce Vita 1960 DVDRip XviD - CODY - Cuộc sống ngọt ngào









Ratings: 8,0/10 from 29.766 users Metascore: 93/100
Bấm vào đây để đăng nhập và xem link!

La Dolce Vita (tựa tiếng Anh The Sweet Life) sản xuất năm 1960, là bộ phim hay nhất của đạo diễn Ý lừng danh Federico Fellini. Nó có tên trong danh sách 100 bộ phim hay nhất thế giới và được xem như cột mốc đánh dấu bước chuyển của đạo diễn Fellini từ trường phát tân hiện thực (neo-realist) sang trường phái phim nghệ thuật (art film) sau này của ông.


Lấy bối cảnh thủ đô Rome của nước Ý (chủ yếu là Via Veneto, con đường có nhiều hộp đêm, cà phê lề đường và nơi tản bộ) vào năm 1959, câu chuyện phim xoay quanh nhân vật chính Marcello (Marcello Mastroianni), một phóng viên chuyên săn lùng những tin tức nhạy cảm và giật gân. Anh bỏ ra nhiều thời gian tìm kiếm những cô gái thuộc đủ mọi thành phần, từ gái điếm đến ngôi sao điện ảnh, từ nữ quí tộc đến những mụ nạ dòng. Anh cũng không ngại tiếp cận các chức sắc tôn giáo và những gã nhà giàu tha hóa. Thời gian phim chỉ diễn ra trong đúng một tuần lễ làm việc và các mối quan hệ của Marcello.

Code: General
Complete name : La Dolce Vita [1960] DVDRip XviD - CODY.avi
Format : AVI
Format/Info : Audio Video Interleave
File size : 1.46 GiB
Duration : 2h 47mn
Overall bit rate : 1 254 Kbps
Writing application : VirtualDubMod 1.5.10.3 | www.virtualdub-fr.org || (build 2550/release)
Writing library : VirtualDubMod build 2550/release

Video
ID : 0
Format : MPEG-4 Visual
Format profile : Advanced [email protected]
Format settings, BVOP : 3
Format settings, QPel : No
Format settings, GMC : No warppoints
Format settings, Matrix : Default (H.263)
Codec ID : XVID
Codec ID/Hint : XviD
Duration : 2h 47mn
Bit rate : 1 053 Kbps
Width : 720 pixels
Height : 304 pixels
Display aspect ratio : 2.35:1
Frame rate : 25.000 fps
Color space : YUV
Chroma subsampling : 4:2:0
Bit depth : 8 bits
Scan type : Progressive
Compression mode : Lossy
Bits/(Pixel*Frame) : 0.192
Stream size : 1.23 GiB (84%)
Writing library : XviD 1.2.1 (UTC 2008-12-04)

Audio
ID : 1
Format : MPEG Audio
Format phiên bản : phiên bản 1
Format profile : Layer 3
Codec ID : 55
Codec ID/Hint : MP3
Duration : 2h 47mn
Bit rate mode : Constant
Bit rate : 192 Kbps
Channel(s) : 2 channels
Sampling rate : 48.0 KHz
Compression mode : Lossy
Stream size : 229 MiB (15%)
Alignment : Aligned on interleaves
Interleave, duration : 40 ms (1.00 video frame)
Interleave, preload duration : 504 ms
Writing library : LAME3.98r
Encoding settings : -m s -V 4 -q 0 -lowpass 18.6 -b 192







1 Link 1.5 GB



Code: Bấm vào đây để đăng nhập và xem link!




Code: Bấm vào đây để đăng nhập và xem link!




Code: Bấm vào đây để đăng nhập và xem link!

La Dolce Vita 1960 720p BluRay FLAC - 8 GB

Code: La Dolce Vita 1960 720p BluRay AC3 - 4.3 GB

Code:


Tất tần tật về Emmanuelle
Bấm vào đây để đăng nhập và xem link!

Lưu ý khi sử dụng

- Gặp Link download hỏng, hãy đăng trả lời (yêu cầu link download mới), Các MOD sẽ cập nhật link sớm nhất
- Tìm kiếm trước khi đăng bài mới

Chủ đề liên quan:
Kết nối đề xuất: