By cuz_of_u000
#608691 [Phiêu lưu | Hài | Tội phạm] Fantomas Against Scotland Yard 1967 BRRip









Ratings: 6,6/10 from 2.567 users
Bấm vào đây để đăng nhập và xem link!

3 năm sau cuộc trốn thoát ngoạn mục năm 1964 (), Fantomas tái xuất tại Scotland và bày trò vui mới: Bắt bọn tỉ phú nộp thuế để được sống. Mà hắn đâu có thu ít, ví như vị Tiểu Vương xứ Ả Rập chẳng hạn, Fantomas chỉ đòi sơ sơ số kim cương nặng bằng thân hình hộ pháp của ông.

Rời nước Pháp thân yêu, cảnh sát trưởng vui tính Juve dẫn tay trợ lý và vợ chồng nhà báo vượt biển quyết bắt bằng được Fantomas cho hả hê cái bụng, chẳng may họ lạc vào xứ sở lắm oan hồn...

Code: General
Unique ID : 242142798431448575855878815015841316883 (0xB62B01B29D35F11B88DAB250BADC4013)
Complete name :Fantomas Contre Scotland Yard (1967)\Phan.To.Mat.Chong.Xi.Cot.Len.Da.mkv
Format : Matroska
Format phiên bản : phiên bản 2
File size : 2.04 GiB
Duration : 1h 40mn
Overall bit rate : 2 886 Kbps
Encoded date : UTC 2012-02-24 08:49:22
Writing application : mkvmerge v2.9.8 ('C'est le bon') built on Aug 13 2009 12:49:06
Writing library : libebml v0.7.7 + libmatroska v0.8.1


Video
ID : 1
Format : AVC
Format/Info : Advanced Video Codec
Format profile : [email protected]
Format settings, CABAC : Yes
Format settings, ReFrames : 4 frames
Codec ID : V_MPEG4/ISO/AVC
Duration : 1h 40mn
Bit rate : 2 499 Kbps
Width : 1 280 pixels
Height : 544 pixels
Display aspect ratio : 2.35:1
Frame rate : 24.000 fps
Color space : YUV
Chroma subsampling : 4:2:0
Bit depth : 8 bits
Scan type : Progressive
Bits/(Pixel*Frame) : 0.150
Stream size : 1.72 GiB (85%)
Title : Team encode TRiM - Viettorrent.vn
Writing library : x264 core 98 r1649 c54c47d
Encoding settings : cabac=1 / ref=3 / deblock=1:-3:-3 / analyse=0x3:0x133 / me=umh / subme=9 / psy=1 / psy_rd=1.00:0.15 / mixed_ref=1 / me_range=32 / chroma_me=1 / trellis=2 / 8x8dct=1 / cqm=0 / deadzone=21,11 / fast_pskip=0 / chroma_qp_offset=-3 / threads=6 / sliced_threads=0 / nr=0 / decimate=1 / interlaced=0 / constrained_intra=0 / bframes=4 / b_pyramid=2 / b_adapt=1 / b_bias=0 / direct=3 / weightb=1 / weightp=2 / keyint=250 / keyint_min=25 / scenecut=40 / intra_refresh=0 / rc_lookahead=40 / rc=2pass / mbtree=1 / bitrate=2499 / ratetol=1.0 / qcomp=0.60 / qpmin=10 / qpmax=51 / qpstep=4 / cplxblur=20.0 / qblur=0.5 / ip_ratio=1.40 / aq=1:1.00
Language : English
Default : No
Forced : No

Audio
ID : 2
Format : AC-3
Format/Info : Audio Coding 3
Mode extension : CM (complete main)
Codec ID : A_AC3
Duration : 1h 40mn
Bit rate mode : Constant
Bit rate : 384 Kbps
Channel(s) : 2 channels
Channel positions : Front: L R
Sampling rate : 48.0 KHz
Bit depth : 16 bits
Compression mode : Lossy
Stream size : 277 MiB (13%)
Title : Encoded by chudaidong
Language : French
Default : No
Forced : No

Text
ID : 3
Format : UTF-8
Codec ID : S_TEXT/UTF8
Codec ID/Info : UTF-8 Plain Text
Language : Vietnamese
Default : Yes
Forced : No







1 Link 2 GB



Code: Bấm vào đây để đăng nhập và xem link!




Code: Bấm vào đây để đăng nhập và xem link!




Code: Bấm vào đây để đăng nhập và xem link!
Fantomas Against Scotland Yard 1967 720 - 4.4 GB

Code:


Tất tần tật về Emmanuelle
Bấm vào đây để đăng nhập và xem link!

Lưu ý khi sử dụng

- Gặp Link download hỏng, hãy đăng trả lời (yêu cầu link download mới), Các MOD sẽ cập nhật link sớm nhất
- Tìm kiếm trước khi đăng bài mới

Chủ đề liên quan:
By nghbac
Kết nối đề xuất: