By ngchihung138
#604464 [Lãng mạn | Tội phạm] Amantes (Lovers) 1991 DVDrip







Ratings: 7,0/10 from 1.193 users
Bấm vào đây để đăng nhập và xem link!

Ông bà ta có câu "Tham thì thâm".


Được trời phú cho vẻ ngoài "ăn tiền" nên Paco chả phải e sợ gì, cứ sống cho thoải mái. Khi trong quân ngũ anh yêu Trini, trong khi người yêu tằn tiện chắt bóp lo cho tương lai anh bảo cứ sài mọi việc sau này anh lo.


Xuất ngũ, vẻ ngoài không giúp được việc làm ổn định cho anh. Thế nên Paco phải chuyển đến phòng trọ rẻ tiền của góa phụ Luisa nương thân. Chả mấy chốc anh bị bà chủ quyến rũ xxx.


Khi Trini hiểu ra sự việc, cô tìm cách kéo anh khỏi tay máy bay già. Vẫn thương và muốn cưới Trini nhưng Luisa quá kinh nghiệm và nhiều ham muốn làm Paco không thể dứt ra được. Trò bắt cá 2 tay ít khi mang đến kết quả ngọt ngào cho cả 3.


Đạo diễn Vicente Aranda cũng ngang lão Tinto Brass về độ nóng của phim, thế nên các bạn cần suy nghĩ trước khi xem ,thanks.


Code: General
Complete name : Amantes.avi
Format : AVI
Format/Info : Audio Video Interleave
File size : 1.34 GiB
Duration : 1h 39mn
Overall bit rate : 1 927 Kbps
Writing application : FairUse Wizard - http://fairusewizard.com
Writing library : The best and REALLY easy backup tool
Video #0
ID : 0
Format : MPEG-4 Visual
Format profile : [email protected]
Format settings, BVOP : Yes
Format settings, QPel : No
Format settings, GMC : No warppoints
Format settings, Matrix : Default (MPEG)
Muxing mode : Packed bitstream
Codec ID : XVID
Codec ID/Hint : XviD
Duration : 1h 39mn
Bit rate : 1 533 Kbps
Width : 640 pixels
Height : 368 pixels
Display aspect ratio : 16:9
Frame rate : 25.000 fps
Resolution : 24 bits
Colorimetry : 4:2:0
Scan type : Progressive
Bits/(Pixel*Frame) : 0.260
Stream size : 1.07 GiB (80%)
Writing library : XviD 1.2.0.dev47 (UTC 2006-11-01)
Audio #1
ID : 1
Format : AC-3
Format/Info : Audio Coding 3
Format profile : Dolby Digital
Codec ID : 2000
Duration : 1h 39mn
Bit rate mode : Constant
Bit rate : 384 Kbps
Channel(s) : 2 channels
Channel positions : L R
Sampling rate : 48.0 KHz
Stream size : 273 MiB (20%)
Alignment : Split accross interleaves
Interleave, duration : 40 ms (1.00 video frame)
Interleave, preload duration : 500 ms





1 Link 1.34 GB

Code: Bấm vào đây để đăng nhập và xem link!




Code: Update


Tất tần tật về Emmanuelle
Bấm vào đây để đăng nhập và xem link!

Lưu ý khi sử dụng

- Gặp Link download hỏng, hãy đăng trả lời (yêu cầu link download mới), Các MOD sẽ cập nhật link sớm nhất
- Tìm kiếm trước khi đăng bài mới

Chủ đề liên quan:
Kết nối đề xuất: