By wife_craigdavid197
#591470 [Tình cảm] Les misérables 1958 DVDrip - Những người khốn khổ







Ratings: 7,1/10 from 596 users
Bấm vào đây để đăng nhập và xem link!

Những người khốn khổ (Les Misérables) là tiểu thuyết của văn hào Pháp Victor Hugo, được xuất bản năm 1862. Tác phẩm được đánh giá là một trong những tiểu thuyết nổi tiếng nhất của nền văn học thế giới thế kỷ 19.


Những người khốn khổ là câu chuyện về xã hội nước Pháp trong khoảng hơn 20 năm đầu thế kỷ 19 kể từ thời điểm Napoléon I lên ngôi và vài thập niên sau đó. Nhân vật chính của tiểu thuyết là Jean Valjean, một cựu tù khổ sai tìm cách chuộc lại những lỗi lầm gây ra thời trai trẻ. Bộ tiểu thuyết không chỉ nói tới bản chất của cái tốt, cái xấu, của luật pháp, mà tác phẩm còn là cuốn bách khoa thư đồ sộ về lịch sử, kiến trúc của Paris, nền chính trị, triết lý, luật pháp, công lý, tín ngưỡng của nước Pháp nửa đầu thế kỷ 19. Chính nhà văn Victor Hugo cũng đã viết cho người biên tập rằng: "tui có niềm tin rằng đây sẽ là một trong những tác phẩm đỉnh cao, nếu không nói là tác phẩm lớn nhất, trong sự nghiệp cầm bút của mình"[1].


Những người khốn khổ cũng nổi tiếng vì đã được chuyển thể nhiều lần thành các vở kịch, bộ phim, trong đó nổi tiếng nhất phải kể tới vở nhạc kịch cùng tên, thường được gọi tắt là "Les Mis" (viết tắt từ Les Misérables).


Les Misérables bản dịch đầu tiên tại Việt Nam của Nguyễn Văn Vĩnh xuất bản năm 1926, với tên "Những kẻ khốn nạn", của nhà Trung Bắc Tân Văn ở Hà Nội in song ngữ dài 10 tập khoảng 3000 trang. Phần lớn các bản dịch sau này là rút gọn.


Code: Part 1






General
Complete name : C:\Users\AAVC\Desktop\abc\LesMisérables,époque1Part1.divx
Format : AVI
Format/Info : Audio Video Interleave
File size : 700 MiB
Duration : 1h 26mn
Overall bit rate : 1 133 Kbps

Video
ID : 0
Format : MPEG-4 Visual
Format settings, BVOP : 1
Format settings, QPel : No
Format settings, GMC : No warppoints
Format settings, Matrix : Default (H.263)
Muxing mode : Packed bitstream
Codec ID : DX50
Codec ID/Hint : DivX 5
Duration : 1h 26mn
Bit rate : 1 043 Kbps
Width : 720 pixels
Height : 390 pixels
Display aspect ratio : 1.85:1
Frame rate : 25.000 fps
Color space : YUV
Chroma subsampling : 4:2:0
Bit depth : 8 bits
Scan type : Progressive
Compression mode : Lossy
Bits/(Pixel*Frame) : 0.149
Stream size : 644 MiB (92%)
Title : Video
Writing library : DivX 6.8.0 Converter 6.6

Audio
ID : 1
Format : MPEG Audio
Format phiên bản : phiên bản 1
Format profile : Layer 3
Mode : Dual mono
Codec ID : 55
Codec ID/Hint : MP3
Duration : 1h 26mn
Bit rate mode : Constant
Bit rate : 80.0 Kbps
Channel(s) : 2 channels



Part 2






General
Complete name : C:\Users\AAVC\Desktop\abc\LesMisérables,époque2Part2.divx
Format : AVI
Format/Info : Audio Video Interleave
File size : 700 MiB
Duration : 1h 35mn
Overall bit rate : 1 030 Kbps

Video
ID : 0
Format : MPEG-4 Visual
Format settings, BVOP : 1
Format settings, QPel : No
Format settings, GMC : No warppoints
Format settings, Matrix : Default (H.263)
Muxing mode : Packed bitstream
Codec ID : DX50
Codec ID/Hint : DivX 5
Duration : 1h 35mn
Bit rate : 941 Kbps
Width : 720 pixels
Height : 390 pixels
Display aspect ratio : 1.85:1
Frame rate : 25.000 fps
Color space : YUV
Chroma subsampling : 4:2:0
Bit depth : 8 bits
Scan type : Progressive
Compression mode : Lossy
Bits/(Pixel*Frame) : 0.134
Stream size : 639 MiB (91%)
Title : Video
Writing library : DivX 6.8.0 Converter 6.6

Audio
ID : 1
Format : MPEG Audio
Format phiên bản : phiên bản 1
Format profile : Layer 3
Mode : Dual mono
Codec ID : 55
Codec ID/Hint : MP3
Duration : 1h 35mn
Bit rate mode : Constant
Bit rate : 80.0 Kbps
Channel(s) : 2 channels









Link Folder 1.4 GB



Code: Bấm vào đây để đăng nhập và xem link!




Code: http://v2.subscene.com/les-misrables-miserables-1958/subtitles-82040.aspx


Tất tần tật về Emmanuelle
Bấm vào đây để đăng nhập và xem link!

Lưu ý khi sử dụng

- Gặp Link download hỏng, hãy đăng trả lời (yêu cầu link download mới), Các MOD sẽ cập nhật link sớm nhất
- Tìm kiếm trước khi đăng bài mới

Chủ đề liên quan:
Kết nối đề xuất: